Ссылка на приватное зеркало всего за 1$. Внимание количество ограничено!!!

iTunes

iTunes

iTunes

1

iTunes

iTunes

iTunes

iTunes

iTunes

30
pack

$ от Little Big

ВАЖНО

!!Акция!!

Alien_RageХит недели

RePack

Resident Evil 21

ИГРА 18+

pack

RePack

jed

!!Акция!!

Alien_Rage

RePack

fifa19

RePack

Assassins Creed: Odyssey

RePack

NEED FOR SPEED™ PAYBACK

4 сезон

9 сезон

Бесстыжие 9 сезон

Все сериалы

все сериалы на PB.wtf

RePack

FAR CRY 5
  

Алекс Лютый / Сезон: 1 / Серии: 1-12 из 12 (Леонид Белозорович) [2020, Детектив, история, криминал, WEBRip-AVC] pb.wtf

Алекс Лютый через торрент pb.wtf

Раздают: 2 [ 0.1 KB/s ]
Размер: 8.63 GB | Добавлен: 6 д. назад | Торрент скачан:52 раза
Скачать  

23-06-2020 03:23 Алекс Лютый Скачать торрент  

Алекс Лютый
Год выпуска: 2020
Страна: Россия
Выпущено: АМЕДИА Продакшн по заказу телеканала НТВ
Жанр: Детектив, история, криминал
Перевод: Не требуется
Продолжительность: ~ 00:49:00

Субтитры: отсутствуют

Режиссер: Леонид Белозорович



В ролях: Владислав Коноплёв, Сергей Пускепалис, Юрий Ицков, Алексей Кирсанов, Дмитрий Муляр, Анастасия Мытражик, Екатерина Решетникова, Дирк Мартенс, Геннадий Смирнов, Андрей Зибров, Дмитрий Сутырин, Мирослава Михайлова, Антон Чернов, Вадим Ахметов (II), Алёна Кучкова, Виталий Крылов, Оксана Базилевич, Александр Мосолов (I), Фёдор Лещев, Наталья Ткаченко, Виктор Конухин

Описание: Фильм основан на реальных событиях – истории разоблачения одного из самых жестоких нацистских преступников Александра Юхновского, которому немцы дали кличку Алекс Лютый. 1975 год. На своей подмосковной даче убит писатель, готовящий к выпуску книгу о гитлеровском палаче Алексе Лютом. Прямо перед смертью он успевает сообщить своему другу – начальнику спецотдела МВД по розыску военных преступников, генералу Петру Сомову – невероятную новость: Лютый, который считался погибшим с 1944 года, жив! Сомов даёт задание разобраться в этом деле своему лучшему следователю – полковнику Егору Сухареву. В этом ему помогает новый сотрудник спецотдела – старший лейтенант Борис Касьянов.

Качество: WEBRip-AVC
Формат: MKV

Видео: MPEG-4 AVC, ~ 2000 Кбит/с, 1024x432, 25 кадр/с
Аудио: 48.0 kHz, AC3 Dolby Digital, 2/0 (L,R) ch, ~ 192 kbps
скриншот  скриншот  скриншот  скриншот  скриншот  

General
Unique ID : 194939890938120721268308165375278771918 (0x92A80EAD441F1B62A27907DFF2E0EECE)
Complete name : F:\Алекс Лютый.(2019).WEBRip.(AVC).Files-x\01.Aleks.Lyutyj.(2019).WEBRip.(AVC).by.Серый1779.Files-x.mkv
Format : Matroska
Format version : Version 2
File size : 741 MiB
Duration : 47 min 12 s
Overall bit rate : 2 193 kb/s
Encoded date : UTC 2020-06-22 20:54:19
Writing application : mkvmerge v7.8.0 ('River Man') 32bit built on Apr 3 2015 12:11:22
Writing library : libebml v1.3.1 + libmatroska v1.4.2

Video
ID : 1
Format : AVC
Format/Info : Advanced Video Codec
Format profile : High@L4.1
Format settings : CABAC / 9 Ref Frames
Format settings, CABAC : Yes
Format settings, RefFrames : 9 frames
Codec ID : V_MPEG4/ISO/AVC
Duration : 47 min 12 s
Bit rate : 2 000 kb/s
Width : 1 024 pixels
Height : 432 pixels
Display aspect ratio : 2.40:1
Frame rate mode : Constant
Frame rate : 25.000 FPS
Color space : YUV
Chroma subsampling : 4:2:0
Bit depth : 8 bits
Scan type : Progressive
Bits/(Pixel*Frame) : 0.181
Stream size : 661 MiB (89%)
Writing library : x264 core 146 r2538 121396c
Encoding settings : cabac=1 / ref=9 / deblock=1:-2:-1 / analyse=0x3:0x133 / me=umh / subme=9 / psy=1 / psy_rd=1.00:0.15 / mixed_ref=1 / me_range=32 / chroma_me=1 / trellis=2 / 8x8dct=1 / cqm=0 / deadzone=21,11 / fast_pskip=0 / chroma_qp_offset=-3 / threads=18 / lookahead_threads=3 / sliced_threads=0 / nr=0 / decimate=1 / interlaced=0 / bluray_compat=0 / constrained_intra=0 / bframes=9 / b_pyramid=2 / b_adapt=2 / b_bias=0 / direct=1 / weightb=1 / open_gop=0 / weightp=2 / keyint=250 / keyint_min=25 / scenecut=40 / intra_refresh=0 / rc=2pass / mbtree=0 / bitrate=2000 / ratetol=1.0 / qcomp=0.60 / qpmin=0 / qpmax=69 / qpstep=4 / cplxblur=20.0 / qblur=0.5 / ip_ratio=1.40 / pb_ratio=1.30 / aq=2:1.00
Default : Yes
Forced : No
Color range : Limited
Color primaries : BT.709
Transfer characteristics : BT.709
Matrix coefficients : BT.709

Audio
ID : 2
Format : AC-3
Format/Info : Audio Coding 3
Format settings, Endianness : Big
Codec ID : A_AC3
Duration : 47 min 12 s
Bit rate mode : Constant
Bit rate : 192 kb/s
Channel(s) : 2 channels
Channel positions : Front: L R
Sampling rate : 48.0 kHz
Frame rate : 31.250 FPS (1536 SPF)
Bit depth : 16 bits
Compression mode : Lossy
Stream size : 64.8 MiB (9%)
Service kind : Complete Main
Default : Yes
Forced : No

Внимание! Раздача ведётся путём добавления новых серий; при каждом добавлении создаётся новый торрент.
Чтобы начать докачку новой серии, пользователям необходимо сделать следующее:
1. Остановить скачивание;
2. Удалить старый торрент у себя из клиента (старые серии удалять не надо);
3. Скачать новый торрент и запустить его у себя в клиенте вместо старого, при этом указать клиенту путь в старую папку куда и должно происходить скачивание новых серий. Ваш клиент при этом должен произвести хеширование (проверку) старой папки и будет докачивать только те серии, которых у вас ещё нет. Старые серии при этом не удаляются, а продолжают раздаваться! Eсли вы уже удалили старые серии, то предотвратить повторную закачку старых серий можно, отжав галочку в соответствующих местах при запуске нового торрента.

pb.wtf



Скачать Алекс Лютый через торрент https://i112.fastpic.ru/big/2020/0622/65/01762425e763f72bb09b75c0b5f5a865.jpg Скачать фильм Алекс Лютый через торрент бесплантно в хорошем качестве Описание: Фильм основан на реальных событиях – истории разоблачения одного из самых жестоких нацистских преступников Александра Юхновского, ... 9 10 11
Торрент: Зарегистрирован [2020-07-01 01:25] · скачан: 52 раз
Статус: √ проверено
Размер: 8.63 GB
Как cкачать? Как скачать Алекс Лютый через торрент | qTorrent

% Раздел Тема Автор DL S | L
Наши сериалы [ 14.54 GB ] Алекс Лютый / Сезон: 1 / Серии: 1-12 из 12 [2020 история WEBRip 720p] bober100 Скачать
5 | 2
Наши сериалы [ 24.13 GB ] Алекс Лютый / Сезон: 1 / Серии: 1-12 из 12 [2020 история WEBRip 1080p] bober100 Скачать
5 | 1
Наши сериалы [ 7.09 GB ] Алекс Лютый / Сезон: 1 / Серии: 1-12 из 12 [2020 история WEBRip] bober100 Скачать
5 | 1
Наши сериалы [ 7.12 GB ] Алекс Лютый / Сезон: 1 / Серии: 1-12 из 12 [2020 история SATRip] bober100 Скачать
4 | 1

28-11-2019 20:33  

Отключить всю рекламу на сайте

    Дорогой пользователь! Огромная просьба, поблагодарите релизера, оцените раздачу и оставьте свои комментарий, если Вы скачали Алекс Лютый через торрент бесплатно! Внесите свою лепту в развитие PiratBit!
    Комментировать посты могут только пользователи прошедшие не сложную регистрацию
    Показать сообщения:    

    Алекс Лютый через торрент
    Скачать бесплатно Алекс Лютый
    Алекс Лютый скачать торрент
    Алекс Лютый смотреть онлайн
    Cкачать фильм Алекс Лютый бесплатно
    Алекс Лютый скачать торрент в хорошем качестве
    Алекс Лютый смотреть онлайн бесплатно в хорошем качестве


    Вы не можете начинать темы
    Вы не можете отвечать на сообщения
    Вы не можете редактировать свои сообщения
    Вы не можете удалять свои сообщения
    Вы не можете голосовать в опросах
    Вы не можете прикреплять файлы к сообщениям
    Вы можете скачивать файлы