Доктор Стрэндж

Лицензия

Добыча

Дубляж

Дом дракона

1 сезон

Тор

Дубляж

В эфире

Дубляж

Там, где раки поют

MVO

Властелин колец

1 сезон

GLOBAL

pack

Рекомендуем

30

Пиратка

ВАЖНО

ВАЖНО

Ghostwire

Пиратка

jed

RePack

nioh2

RePack

RDR2

RePack

NEED FOR SPEED™ PAYBACK

RePack

скачать торрент

Кинопоиск HD

Острые козырьки 6 сезон

6 сезон

FAR CRY 6

RePack

скачать торрент

Лицензия

скачать торрент

MVO

1

1 сезон

скачать торрент

1 сезон

скачать торрент

Лицензия

  

Черная гора (Александр Згуриди) [1971 г., семейный, детский, приключения, экранизация, DVDRip-AVC]

Черная гора через торрент pb.wtf

Размер: 2.47 GB | Добавлен: 2 года 5 мес. назад | Торрент скачан:8 раз
Смотреть онлайн | Скачать   

23-06-2020 14:47 Черная гора Скачать торрент  

Черная гора

Год выпуска: 1971
Страна: СССР, Индия | Центрнаучфильм ТО ''Орбита'', Общество детских фильмов Индии
Жанр: семейный, детский, приключения, экранизация
Продолжительность: 01:23:14
Перевод: Профессиональный многоголосый закадровый
Субтитры: Русские

Режиссер: Александр Згуриди

В ролях: Райман Паша, Принс Прадип, Ходжа Ахмад Аббас, Алексей Консовский, Маргарита Корабельникова

Описание: Когда-то, очень давно, в Индии обитало огромное стадо слонов во главе с вожаком Черная гора. После длительной засухи один из слонов впал в бешенство… Первой жертвой стала девочка… И тогда люди устроили охоту на слонов. Черная гора попал в плен. Но в скоре у него появился друг — мальчик Ману…

rating
Рейтинг 0+ - для любой зрительской аудитории

Файл
Формат: MKV
Кодек: x264
Качество: DVDRip-AVC (DVD9)
Видео: MPEG-4 AVC, 716->763x572, 25.000 fps, 3795 kbps, 0.371 bit/pixel
Аудио #1: Русский, AC3, 6 chnls, 448 kbps | MVO
Аудио #2: Русский, AC3, 1 chnls, 112 kbps | MVO | Отдельно
Аудио #3: Индийский, AC3, 6 chnls, 448 kbps | Original | Отдельно
x264 [info]: frame I:758 Avg QP:18.30 size: 88664
x264 [info]: frame P:40662 Avg QP:19.81 size: 35376
x264 [info]: frame B:83435 Avg QP:21.75 size: 10349
x264 [info]: consecutive B-frames: 10.9% 7.1% 13.0% 29.6% 17.4% 18.0% 2.5% 0.9% 0.3% 0.2% 0.0%
Format : Matroska
Format version : Version 4
File size : 2.47 GiB
Duration : 1 h 23 min
Overall bit rate : 4 246 kb/s
Movie name : Черная гора (1971) - Rip by -{am}-
Encoded date : UTC 2020-06-23 08:43:13
Writing application : mkvmerge v7.2.0 ('On Every Street') 32bit built on Sep 13 2014 15:42:11
Writing library : libebml v1.3.0 + libmatroska v1.4.1
Attachments : poster.png

Video
ID : 1
Format : AVC
Format/Info : Advanced Video Codec
Format profile : [email protected]
Format settings : CABAC / 16 Ref Frames
Format settings, CABAC : Yes
Format settings, Reference : 16 frames
Codec ID : V_MPEG4/ISO/AVC
Duration : 1 h 23 min
Bit rate : 3 795 kb/s
Width : 716 pixels
Height : 572 pixels
Display aspect ratio : 4:3
Original display aspect rat : 4:3
Frame rate mode : Constant
Frame rate : 25.000 FPS
Color space : YUV
Chroma subsampling : 4:2:0
Bit depth : 8 bits
Scan type : Progressive
Bits/(Pixel*Frame) : 0.371
Stream size : 2.21 GiB (89%)
Title : Black.Mountain.1971.{am}.763.Rus.Sub
Writing library : x264 core 160 r3007+53 ab26477 t_mod_New [(8 & 10)[email protected] X86_64]
Encoding settings : cabac=1 / ref=16 / deblock=1:-3:0 / analyse=0x3:0x113 / me=umh / subme=11 / psy=1 / fade_compensate=0.00 / psy_rd=1.00:0.20 / mixed_ref=1 / me_range=64 / chroma_me=1 / trellis=2 / 8x8dct=1 / cqm=2 / deadzone=21,11 / fast_pskip=0 / chroma_qp_offset=-5 / threads=18 / lookahead_threads=4 / sliced_threads=0 / nr=0 / decimate=0 / interlaced=0 / bluray_compat=0 / constrained_intra=0 / fgo=0 / bframes=14 / b_pyramid=2 / b_adapt=2 / b_bias=0 / direct=3 / weightb=1 / open_gop=0 / weightp=2 / keyint=250 / keyint_min=25 / scenecut=40 / intra_refresh=0 / rc_lookahead=40 / rc=crf / mbtree=0 / crf=16.5000 / qcomp=0.60 / qpmin=0:0:0 / qpmax=69:69:69 / qpstep=4 / vbv_maxrate=50000 / vbv_bufsize=62500 / crf_max=30.0 / nal_hrd=none / filler=0 / ip_ratio=1.40 / pb_ratio=1.30 / aq=3:1.00 / aq-sensitivity=10.00 / aq-factor=1.00:1.00:1.00 / aq2=0 / aq3=0
Language : Russian
Default : Yes
Forced : No

Audio
ID : 2
Format : AC-3
Format/Info : Audio Coding 3
Commercial name : Dolby Digital
Codec ID : A_AC3
Duration : 1 h 23 min
Bit rate mode : Constant
Bit rate : 448 kb/s
Channel(s) : 6 channels
Channel layout : L R C LFE Ls Rs
Sampling rate : 48.0 kHz
Frame rate : 31.250 FPS (1536 SPF)
Compression mode : Lossy
Stream size : 267 MiB (11%)
Title : MVO
Language : Russian
Service kind : Complete Main
Default : Yes
Forced : No

Text
ID : 3
Format : UTF-8
Codec ID : S_TEXT/UTF8
Codec ID/Info : UTF-8 Plain Text
Duration : 1 h 20 min
Bit rate : 37 b/s
Count of elements : 385
Stream size : 22.2 KiB (0%)
Language : Russian
Default : Yes
Forced : No

Menu
00:00:00.000 : :Глава 1
00:03:29.280 : :Глава 2
00:11:40.320 : :Глава 3
00:14:20.160 : :Глава 4
00:18:12.960 : :Глава 5
00:22:27.360 : :Глава 6
00:27:12.000 : :Глава 7
00:31:28.800 : :Глава 8
00:40:07.200 : :Глава 9
00:45:47.520 : :Глава 10
00:49:50.880 : :Глава 11
00:57:58.560 : :Глава 12
01:02:48.480 : :Глава 13
01:08:28.319 : :Глава 14
01:12:26.400 : :Глава 15



Скачать Черная гора через торрент https://img11.lostpic.net/2020/06/23/dd1370ce5ecea3b80e5d411f156002aa.th.png Скачать, смотреть онлайн Черная гора бесплантно в хорошем качестве Описание: Когда-то, очень давно, в Индии обитало огромное стадо слонов во главе с вожаком Черная гора. После длительной засухи один из ... 5 10 1
Info! Золотая раздача, скачанное не засчитывается.
Торрент: Зарегистрирован [2020-06-23 14:47] · скачан: 8 раз
Статус: √ проверено
Размер: 2.47 GB
Как cкачать? Как скачать Черная гора через торрент | UTorrent

28-11-2019 20:33  


Отключить вcю реклaмy на сайте, в т.ч. и в плеере онлайн просмотра!

    Дорогой пользователь! Огромная просьба, поблагодарите релизера, оцените раздачу и оставьте свои комментарий, если Вы скачали Черная гора через торрент бесплатно!!
    Комментировать посты могут только пользователи прошедшие не сложную регистрацию
    Показать сообщения:    


    Черная гора через торрент
    Скачать бесплатно Черная гора
    Черная гора скачать торрент
    Черная гора смотреть онлайн
    Cкачать фильм Черная гора бесплатно
    Черная гора скачать торрент в хорошем качестве
    Черная гора смотреть онлайн бесплатно в хорошем качестве
    Вы не можете начинать темы
    Вы не можете отвечать на сообщения
    Вы не можете редактировать свои сообщения
    Вы не можете удалять свои сообщения
    Вы не можете голосовать в опросах
    Вы не можете прикреплять файлы к сообщениям
    Вы можете скачивать файлы
    Черная гора [1971 г., семейный, детский, приключения, экранизация, DVDRip-AVC] смотреть онлайн, скачать торрент picoco.icu