Ссылка на приватное зеркало всего за 1$. Внимание количество ограничено!!!

iTunes

iTunes

iTunes

1

iTunes

iTunes

iTunes

WEBRip

iTunes

30
pack

$ от Little Big

ВАЖНО

!!Акция!!

Alien_RageХит недели

RePack

Resident Evil 21

ИГРА 18+

pack

RePack

jed

!!Акция!!

Alien_Rage

RePack

fifa19

RePack

Assassins Creed: Odyssey

RePack

NEED FOR SPEED™ PAYBACK

4 сезон

9 сезон

Бесстыжие 9 сезон

Все сериалы

все сериалы на PB.wtf

RePack

FAR CRY 5
  

Перри Мейсон / Perry Mason / Сезон: 1 / Серии: 1-7 из 8 (Тимоти Ван Паттен, Дениз Гамзе Эргювен) [2020, детектив, криминал, WEB-DL 720p] 3xMVO [Кравец-Рекордз / Amedia, NewStudio, AlexFilm] pb.wtf

Перри Мейсон через торрент pb.wtf

Раздают: 1 [ 0 KB/s ]
Размер: 17.01 GB | Добавлен: 4 д. назад | Торрент скачан:3 раза
Скачать  

26-06-2020 00:56 Перри Мейсон Скачать торрент  

Перри Мейсон | Perry Mason
«Everyone is Guilty of Something»
Год выпуска: 2020
Страна: США
Выпущено: Home Box Office (HBO), Team Downey
Жанр: детектив, криминал
Продолжительность: ~ 00:57:00
Перевод: Профессиональный (многоголосый) | "Кравец-Рекордз" по заказу Amedia
Профессиональный (многоголосый закадровый) | NewStudio
Профессиональный (многоголосый закадровый) | AlexFilm
Субтитры: Rus (Forced, Full), Eng (SDH)

Режиссер: Тимоти Ван Паттен, Дениз Гамзе Эргювен

rating

В ролях: Мэттью Рис, Рэйчел Боулвер, Джедедайя Дженк, Ник Ла Круа, Татьяна Маслани, Джульет Райлэнс, Остин Слоун, Бруно Трова, Дрю Уолтон

Описание: 1930-е годы. Адвокат Перри Мэйсон в отличие от своих коллег частенько лично занимается расследованием дел своих клиентов. Иногда Мэйсону помогает частный детектив Пол Дрейк.

Качество: WEB-DL 720p
Формат: MKV

Видео: AVC, 1280 x 720 (1.778), 23.976 fps, 3 656 Кбит/сек
Аудио Rus: AC-3, 48 kHz, 6 ch, 384 kbps |Amedia| Серии: 1-2
Аудио Rus: AC-3, 48 kHz, 6 ch, 640 kbps |NewStudio| Серии: 1-7
Аудио Rus: AC-3, 48 kHz, 6 ch, 640 kbps |AlexFilm| Серии: 1-7
Аудио Eng: E-AC3, 48 kHz, 6 ch, 640 kbps |Original|
скриншот  скриншот  скриншот  скриншот  скриншот  

Общее
Уникальный идентификатор : 300833048928330615781492181050167480457 (0xE2525674C49B76E7C0FBB1CEBCDD5089)
Полное имя : E:\_Сериалы\_Сериалы\Перри Мэйсон\Perry.Mason.S01.WEBDL.720p.3хRus.Eng\Perry.Mason.s01e01.WEBDL.720p.RGzsRutracker.mkv
Формат : Matroska
Версия формата : Version 4
Размер файла : 2,29 Гбайт
Продолжительность : 57 м. 31 с.
Общий поток : 5 698 Кбит/сек
Дата кодирования : UTC 2020-07-08 20:14:41
Программа кодирования : mkvmerge v48.0.0 ('Fortress Around Your Heart') 64-bit
Библиотека кодирования : libebml v1.4.0 + libmatroska v1.6.0

Видео
Идентификатор : 1
Формат : AVC
Формат/Информация : Advanced Video Codec
Профиль формата : High@L3.1
Настройки формата : CABAC / 4 Ref Frames
Параметр CABAC формата : Да
Параметр RefFrames формата : 4 кадра
Идентификатор кодека : V_MPEG4/ISO/AVC
Продолжительность : 57 м. 30 с.
Вид битрейта : Постоянный
Битрейт : 3 656 Кбит/сек
Номинальный битрейт : 6 000 Кбит/сек
Ширина : 1 280 пикселей
Высота : 720 пикселей
Соотношение сторон : 16:9
Режим частоты кадров : Постоянный
Частота кадров : 23,976 (24000/1001) кадра/сек
Цветовое пространство : YUV
Субдискретизация насыщенности : 4:2:0
Битовая глубина : 8 бит
Тип развёртки : Прогрессивная
Бит/(Пиксели*Кадры) : 0.165
Размер потока : 1,47 Гбайт (64%)
Язык : English
Default : Да
Forced : Нет
Цветовой диапазон : Limited
Основные цвета : BT.709
Характеристики трансфера : BT.709
Коэффициенты матрицы : BT.709

Аудио #1
Идентификатор : 2
Формат : AC-3
Формат/Информация : Audio Coding 3
Коммерческое название : Dolby Digital
Идентификатор кодека : A_AC3
Продолжительность : 56 м. 6 с.
Вид битрейта : Постоянный
Битрейт : 384 Кбит/сек
Каналы : 6 каналов
Channel layout : L R C LFE Ls Rs
Частота : 48,0 КГц
Частота кадров : 31,250 кадров/сек (1536 SPF)
Метод сжатия : С потерями
Размер потока : 154 Мбайт (7%)
Заголовок : Amedia
Язык : Russian
Service kind : Complete Main
Default : Да
Forced : Нет

Аудио #2
Идентификатор : 3
Формат : AC-3
Формат/Информация : Audio Coding 3
Коммерческое название : Dolby Digital
Идентификатор кодека : A_AC3
Продолжительность : 57 м. 30 с.
Вид битрейта : Постоянный
Битрейт : 640 Кбит/сек
Каналы : 6 каналов
Channel layout : L R C LFE Ls Rs
Частота : 48,0 КГц
Частота кадров : 31,250 кадров/сек (1536 SPF)
Метод сжатия : С потерями
Размер потока : 263 Мбайт (11%)
Заголовок : NewStudio
Язык : Russian
Service kind : Complete Main
Default : Нет
Forced : Нет

Аудио #3
Идентификатор : 4
Формат : AC-3
Формат/Информация : Audio Coding 3
Коммерческое название : Dolby Digital
Идентификатор кодека : A_AC3
Продолжительность : 57 м. 30 с.
Вид битрейта : Постоянный
Битрейт : 384 Кбит/сек
Каналы : 6 каналов
Channel layout : L R C LFE Ls Rs
Частота : 48,0 КГц
Частота кадров : 31,250 кадров/сек (1536 SPF)
Метод сжатия : С потерями
Размер потока : 158 Мбайт (7%)
Заголовок : AlexFilm
Язык : Russian
Service kind : Complete Main
Default : Нет
Forced : Нет

Аудио #4
Идентификатор : 5
Формат : E-AC-3
Формат/Информация : Enhanced AC-3
Коммерческое название : Dolby Digital Plus
Идентификатор кодека : A_EAC3
Продолжительность : 57 м. 30 с.
Вид битрейта : Постоянный
Битрейт : 640 Кбит/сек
Каналы : 6 каналов
Channel layout : L R C LFE Ls Rs
Частота : 48,0 КГц
Частота кадров : 31,250 кадров/сек (1536 SPF)
Метод сжатия : С потерями
Задержка видео : 28 мс.
Размер потока : 263 Мбайт (11%)
Заголовок : English
Язык : English
Service kind : Complete Main
Default : Нет
Forced : Нет

Текст #1
Идентификатор : 6
Формат : UTF-8
Идентификатор кодека : S_TEXT/UTF8
Идентификатор кодека/Информация : UTF-8 Plain Text
Продолжительность : 6 м. 19 с.
Битрейт : 5 бит/сек
Count of elements : 4
Размер потока : 283 байт (0%)
Заголовок : Forced
Язык : Russian
Default : Да
Forced : Да

Текст #2
Идентификатор : 7
Формат : UTF-8
Идентификатор кодека : S_TEXT/UTF8
Идентификатор кодека/Информация : UTF-8 Plain Text
Продолжительность : 53 м. 19 с.
Битрейт : 87 бит/сек
Count of elements : 517
Размер потока : 34,2 Кбайт (0%)
Заголовок : Russian
Язык : Russian
Default : Нет
Forced : Нет

Текст #3
Идентификатор : 8
Формат : UTF-8
Идентификатор кодека : S_TEXT/UTF8
Идентификатор кодека/Информация : UTF-8 Plain Text
Продолжительность : 57 м. 17 с.
Битрейт : 61 бит/сек
Count of elements : 833
Размер потока : 25,7 Кбайт (0%)
Заголовок : English
Язык : English
Default : Нет
Forced : Нет

Внимание! Раздача ведётся путём добавления новых серий; при каждом добавлении создаётся новый торрент.
Чтобы начать докачку новой серии, пользователям необходимо сделать следующее:
1. Остановить скачивание;
2. Удалить старый торрент у себя из клиента (старые серии удалять не надо);
3. Скачать новый торрент и запустить его у себя в клиенте вместо старого, при этом указать клиенту путь в старую папку куда и должно происходить скачивание новых серий. Ваш клиент при этом должен произвести хеширование (проверку) старой папки и будет докачивать только те серии, которых у вас ещё нет. Старые серии при этом не удаляются, а продолжают раздаваться! Eсли вы уже удалили старые серии, то предотвратить повторную закачку старых серий можно, отжав галочку в соответствующих местах при запуске нового торрента.

pb.wtf



Скачать Перри Мейсон через торрент https://i5.imageban.ru/out/2020/06/25/ec421727a279f005970484af95b4e04b.png Скачать фильм Перри Мейсон через торрент бесплантно в хорошем качестве Описание: 1930-е годы. Адвокат Перри Мэйсон в отличие от своих коллег частенько лично занимается расследованием дел своих клиентов. Иногда ... 10 10 4
Торрент: Зарегистрирован [2020-08-09 22:35] · скачан: 3 раз
Статус: √ проверено
Размер: 17.01 GB
Как cкачать? Как скачать Перри Мейсон через торрент | qTorrent

% Раздел Тема Автор DL S | L
Зарубежные сериалы [ 8.05 GB ] Перри Мейсон / Perry Mason / Сезон: 1 / Серии: 1-7 из 8 [2020 WEB-DLRip-AVC] 3xMVO [Кравец-Рекордз / Amedia NewStudio AlexFilm] GEKADOL Скачать
2 | 1
Зарубежные сериалы [ 5.92 GB ] Перри Мейсон / Perry Mason / Сезон: 1 / Серии: 1-7 из 8 [2020 WEB-DLRip] MVO [AlexFilm] bober100 Скачать
2 | 1

28-11-2019 20:33  

Отключить всю рекламу на сайте

09-08-2020 22:36 Перри Мейсон Скачать торрент  

+7 от NewStudio
6я серия звук от NewStudio - Proper, добавлен/возвращен второй женский голос.pb.wtf



    Дорогой пользователь! Огромная просьба, поблагодарите релизера, оцените раздачу и оставьте свои комментарий, если Вы скачали Перри Мейсон через торрент бесплатно! Внесите свою лепту в развитие PiratBit!
    Комментировать посты могут только пользователи прошедшие не сложную регистрацию
    Показать сообщения:    

    Перри Мейсон через торрент
    Скачать бесплатно Перри Мейсон
    Перри Мейсон скачать торрент
    Перри Мейсон смотреть онлайн
    Cкачать фильм Перри Мейсон бесплатно
    Перри Мейсон скачать торрент в хорошем качестве
    Перри Мейсон смотреть онлайн бесплатно в хорошем качестве


    Вы не можете начинать темы
    Вы не можете отвечать на сообщения
    Вы не можете редактировать свои сообщения
    Вы не можете удалять свои сообщения
    Вы не можете голосовать в опросах
    Вы не можете прикреплять файлы к сообщениям
    Вы можете скачивать файлы