Ссылка на приватное зеркало всего за 1$. Внимание количество ограничено!!!

iTunes

iTunes

iTunes

1

iTunes

iTunes

iTunes

WEBRip

iTunes

30
pack

$ от Little Big

ВАЖНО

!!Акция!!

Alien_RageХит недели

RePack

Resident Evil 21

ИГРА 18+

pack

RePack

jed

!!Акция!!

Alien_Rage

RePack

fifa19

RePack

Assassins Creed: Odyssey

RePack

NEED FOR SPEED™ PAYBACK

4 сезон

9 сезон

Бесстыжие 9 сезон

Все сериалы

все сериалы на PB.wtf

RePack

FAR CRY 5
  

Роковой патруль / Doom Patrol / Сезон: 2 / Серии: 1-9 из 9 (Дермотт Даунс, Крис Мэнли, Салли Ричардсон-Уитфилд) [2020, Фантастика, боевик, драма, приключения, WEB-DL 1080p] [MVO] (Hamsterstudio) pb.wtf

Роковой патруль через торрент pb.wtf

Раздают: 5 [ 7 KB/s ]
Размер: 16.27 GB | Добавлен: 6 д. назад | Торрент скачан:12 раз
Скачать  

26-06-2020 20:30 Роковой патруль Скачать торрент  

Роковой патруль | Doom Patrol
Год выпуска: 2020
Страна: США
Жанр: фантастика, боевик, драма, приключения
Продолжительность: ~ 00:55:00

Перевод: Любительский (многоголосый закадровый) Hamsterstudio

Режиссёр: Дермотт Даунс, Крис Мэнли, Салли Ричардсон-Уитфилд

В ролях: Дайан Герерро, Эйприл Боулби, Алан Тьюдик, Мэтт Бомер, Брендан Фрейзер, Тимоти Далтон, Райли Шэнэхэн, Мэттью Зук, Джоиван Уэйд, Кайл Расселл Клементс и др.
Описание: Иногда трагедии обрывают человеческие жизни, а иногда меняют их до неузнаваемости. Так произошло и с Клиффом Стилом, лихим раллистом, который попал в страшнейшую автокатастрофу. Весь мир поспешил счесть Стила мертвым, однако доктору Найлзу Колдеру удалось спасти мозг гонщика и пересадить его в «тело» робота. Когда Клифф пришел в сознание, он с удивлением обнаружил, что Колдер, он же Шеф, собрал под крышей своего дома целую команду таких же несчастных, как он. Вскоре у профессора, подарившего каждому из них вторую жизнь и суперспособности, появляются опасные враги. И вместо тихого отшельнического образа жизни пятеро уродцев получают возможность проявить свои силы на полную и защитить от всесильных злодеев Шефа, город и все живое...
rating
скриншот  

Качество: WEB-DL 1080p
Формат: MKV
Видео: MPEG-4 AVC, ~ 5000 Кбит/с, 1920x872
Аудио Rus: AC33, 48.0 KHz, 2 channels, ~192 kbps
Субтитры: нет
General
Unique ID : 177846701207623929861692366358383282111 (0x85CC075B4891A626419193E762D1C7BF)
Complete name : G:\Doom.Patrol (Season 02) HamsterStudio 1080\Doom.Patrol.s02e01.1080p.WEB-DL.HamsterStudio.mkv
Format : Matroska
Format version : Version 4
File size : 1.94 GiB
Duration : 54 min 38 s
Overall bit rate : 5 093 kb/s
Encoded date : UTC 2020-06-25 14:22:45
Writing application : mkvmerge v36.0.0 ('Is That Jazz?') 64-bit
Writing library : libebml v1.3.9 + libmatroska v1.5.2

Video
ID : 1
Format : AVC
Format/Info : Advanced Video Codec
Format profile : High@L4.1
Format settings : CABAC / 2 Ref Frames
Format settings, CABAC : Yes
Format settings, Reference : 2 frames
Format settings, GOP : M=2, N=23
Codec ID : V_MPEG4/ISO/AVC
Duration : 54 min 38 s
Bit rate : 4 799 kb/s
Width : 1 920 pixels
Height : 872 pixels
Display aspect ratio : 2.2:1
Frame rate mode : Constant
Frame rate : 23.976 (24000/1001) FPS
Standard : NTSC
Color space : YUV
Chroma subsampling : 4:2:0
Bit depth : 8 bits
Scan type : Progressive
Bits/(Pixel*Frame) : 0.120
Stream size : 1.83 GiB (94%)
Default : Yes
Forced : No
Color range : Limited
Color primaries : BT.709
Transfer characteristics : BT.709
Matrix coefficients : BT.709
Duration_Source : General_Duration

Audio
ID : 2
Format : AC-3
Format/Info : Audio Coding 3
Commercial name : Dolby Digital
Codec ID : A_AC3
Duration : 54 min 38 s
Bit rate mode : Constant
Bit rate : 192 kb/s
Channel(s) : 2 channels
Channel layout : L R
Sampling rate : 48.0 kHz
Frame rate : 31.250 FPS (1536 SPF)
Compression mode : Lossy
Stream size : 75.0 MiB (4%)
Service kind : Complete Main
Default : Yes
Forced : No
Duration_Source : General_Duration
скриншот  скриншот  скриншот  
Внимание! Раздача ведётся путём добавления новых серий; при каждом добавлении создаётся новый торрент.
Чтобы начать докачку новой серии, пользователям необходимо сделать следующее:

1. Остановить скачивание.
2. Удалить старый торрент у себя из клиента (старые серии удалять не надо).
3. Скачать новый торрент и запустить его у себя в клиенте вместо старого, при этом указать клиенту путь в старую папку куда и должно происходить скачивание новых серий.

Ваш клиент при этом должен произвести хеширование (проверку) старой папки (если не производит сам - помогите ему сделать это), и будет докачивать только те серии которых у вас ещё нет. Старые серии при этом не удаляются, а продолжают раздаваться!
Eсли вы уже удалили старые серии, то предотвратить повторную закачку старых серий можно, отжав галочку в соответсвующих местах при запуске нового торрента.
pb.wtf



Скачать Роковой патруль через торрент https://i112.fastpic.ru/big/2020/0625/dd/10df6c22cc4319b0f8c83523279128dd.jpg Скачать фильм Роковой патруль через торрент бесплантно в хорошем качестве Описание: Иногда трагедии обрывают человеческие жизни, а иногда меняют их до неузнаваемости. Так произошло и с Клиффом Стилом, лихим ... 10 10 2
Торрент: Зарегистрирован [2020-08-06 19:08] · скачан: 12 раз
Статус: T временная
Размер: 16.27 GB
Как cкачать? Как скачать Роковой патруль через торрент | qTorrent

% Раздел Тема Автор DL S | L
Зарубежные сериалы [ 28.41 GB ] Роковой патруль / Doom Patrol / Сезон: 2 / Серии: 1-9 из 9 [2020 WEB-DL 1080p] MVO [NewStudio] bober100 Скачать
5 | 2
Зарубежные сериалы [ 14.63 GB ] Роковой патруль / Doom Patrol / Сезон: 2 / Серии: 1-9 из 9 [2020 WEB-DL 720p] DVO [Кубик в кубе] +2xMVO [LostFilm NewStudio] bober100 Скачать
3 | 2
Зарубежные сериалы [ 5.72 GB ] Роковой патруль / Doom Patrol / Сезон: 2 / Серии: 1-9 из 9 [2020 WEB-DLRip] MVO [TVShows] bober100 Скачать
3 | 3
Зарубежные сериалы [ 1.64 GB ] Роковой патруль / Doom Patrol / Сезон: 2 / Серии: 1-2 из 9 [2020 WEB-DLRip] DVO [Кубик в кубе] bober100 Скачать
2 | 0
Зарубежные сериалы [ 770 MB ] Роковой патруль / Doom Patrol / Сезон: 2 / Серии: 1- из 9 [2020 . WEB-DLRip] [MVO] killermax2013 Скачать
1 | 0
Зарубежные сериалы [ 7.02 GB ] Роковой патруль / Doom Patrol / Сезон: 2 / Серии: 1-2 из 9 [2020 WEB-DL 1080p] [DVO] killermax2013 Скачать
3 | 0
Зарубежные сериалы [ 1.77 GB ] Роковой патруль / Doom Patrol / Сезон: 2 / Серии: 1- из 9 [2020 WEBRip 1080p] [MVO] killermax2013 Скачать
1 | 0

28-11-2019 20:33  

Отключить всю рекламу на сайте

12-08-2020 03:46 Роковой патруль Скачать торрент  

Топик был перенесен из форума Зарубежные сериалы в форум Для поглощённых раздач

Причина переноса: Роковой патруль / Doom Patrol / Сезон: 2 / Серии: 1-9 из 9
bober100pb.wtf



    Дорогой пользователь! Огромная просьба, поблагодарите релизера, оцените раздачу и оставьте свои комментарий, если Вы скачали Роковой патруль через торрент бесплатно! Внесите свою лепту в развитие PiratBit!
    Комментировать посты могут только пользователи прошедшие не сложную регистрацию
    Показать сообщения:    

    Роковой патруль через торрент
    Скачать бесплатно Роковой патруль
    Роковой патруль скачать торрент
    Роковой патруль смотреть онлайн
    Cкачать фильм Роковой патруль бесплатно
    Роковой патруль скачать торрент в хорошем качестве
    Роковой патруль смотреть онлайн бесплатно в хорошем качестве


    Вы не можете начинать темы
    Вы не можете отвечать на сообщения
    Вы не можете редактировать свои сообщения
    Вы не можете удалять свои сообщения
    Вы не можете голосовать в опросах
    Вы не можете прикреплять файлы к сообщениям
    Вы можете скачивать файлы