Ссылка на приватное зеркало нашего сайта всего за 1$. Внимание количество ограничено!!!

2 сезон

iTunes

1 сезон

1

2 сезон

2 сезон

iTunes

1 сезон

RePack

30

Ultimate

ВАЖНО

ИГРА 18+

pack

RePack

MK11
pack

Забери бонус

RePack

jed

!!Акция!!

Alien_Rage

RePack

fifa19

RePack

Assassins Creed: Odyssey

RePack

NEED FOR SPEED™ PAYBACK

4 сезон

9 сезон

Бесстыжие 9 сезон

Все сериалы

все сериалы на PB.wtf

RePack

FAR CRY 5
  

После полуночи / After Midnight (Джереми Гарднер, Кристиан Стелла) [2019, Ужасы, фантастика, драма, BD Remux 1080p] DUB [iTunes] pb.wtf

После полуночи через торрент pb.wtf

Размер: 21.72 GB | Добавлен: 4 мес. 27 д. назад | Торрент скачан:25 раз
Скачать  

27-06-2020 05:10 После полуночи Скачать торрент  

После полуночи | After Midnight
Год выпуска: 2019
Страна: США
Студия: Rustic Films, Kavya Films, Vested Interest
Жанр: Ужасы, фантастика, драма
Продолжительность: 01:23:15
Перевод: Дублированный | iTunes
Субтитры: Русские (Full), английские

Режиссер: Джереми Гарднер, Кристиан Стелла

rating скриншот  

В ролях: Джереми Гарднер, Бриа Грант, Джастин Бенсон, Эшли Сонг, Никола Маскотра, Кит Арбетнот, Генри Жебровский

Описание: После долгих лет гражданского брака Хэнка бросила девушка, но погрузиться в пучину меланхолии и как следует поныть и пострадать у него не получается. По ночам к его дому начинает приходить какое-то страшное существо и с явно недобрыми намерениями скрестись в дверь. Мужчина пытается противостоять монстру, попутно вспоминая развалившиеся отношения и пытаясь понять, что же пошло не так.

Качество: BD Remux 1080p
Формат: MKV

Видео: MPEG-4 AVC, 1920x1080, 33.3 Mbit/s, 23.976 fps
Аудио #01: 48 kHz, AC3, 5.1, 384 Kbps | iTunes | RUS |
Аудио #02: 48 kHz, DTS-HD MA, 5.1, 3571 Kbps | Оригинал | ENG |
скриншот  скриншот  скриншот  скриншот  

Общее
Уникальный идентификатор : 15983838907955064676850960994723720404 (0xC06601A13CF2FF52A6FA0C6DF486CD4)
Полное имя : D:\After.Midnight.2019.BDREMUX.1080p.seleZen.mkv
Формат : Matroska
Версия формата : Version 4 / Version 2
Размер файла : 21,7 Гбайт
Продолжительность : 1 ч. 23 м.
Режим общего битрейта : Переменный
Общий поток : 37,3 Мбит/сек
Название фильма : After Midnight 2019 from селезень
Дата кодирования : UTC 2020-06-26 10:21:52
Программа кодирования : mkvmerge v40.0.0 ('Old Town Road + Pony') 64-bit
Библиотека кодирования : libebml v1.3.9 + libmatroska v1.5.2
Обложка : Yes
Attachments : cover.jpg

Видео
Идентификатор : 1
Формат : AVC
Формат/Информация : Advanced Video Codec
Профиль формата : High@L4.1
Параметр CABAC формата : Да
Параметр RefFrames формата : 3 кадра
Идентификатор кодека : V_MPEG4/ISO/AVC
Продолжительность : 1 ч. 23 м.
Вид битрейта : Переменный
Битрейт : 33,3 Мбит/сек
Номинальный битрейт : 35,0 Мбит/сек
Максимальный битрейт : 35,0 Мбит/сек
Ширина : 1920 пикселей
Высота : 1080 пикселей
Соотношение сторон : 16:9
Режим частоты кадров : Постоянный
Частота кадров : 23,976 (24000/1001) кадра/сек
Цветовое пространство : YUV
Субдискретизация насыщенности : 4:2:0
Битовая глубина : 8 бит
Тип развёртки : Прогрессивная
Бит/(Пиксели*Кадры) : 0.670
Размер потока : 19,4 Гбайт (89%)
Библиотека кодирования : x264 core 157 r2969 d4099dd
Настройки программы : cabac=1 / ref=4 / deblock=1:-1:-1 / analyse=0x3:0x133 / me=umh / subme=10 / psy=1 / psy_rd=1.00:0.15 / mixed_ref=1 / me_range=24 / chroma_me=1 / trellis=2 / 8x8dct=1 / cqm=0 / deadzone=21,11 / fast_pskip=1 / chroma_qp_offset=-3 / threads=18 / lookahead_threads=1 / sliced_threads=0 / slices=4 / nr=0 / decimate=1 / interlaced=0 / bluray_compat=1 / stitchable=1 / constrained_intra=0 / bframes=3 / b_pyramid=1 / b_adapt=2 / b_bias=0 / direct=3 / weightb=1 / open_gop=1 / weightp=1 / keyint=24 / keyint_min=1 / scenecut=40 / intra_refresh=0 / rc_lookahead=24 / rc=2pass / mbtree=1 / bitrate=35000 / ratetol=0.9 / qcomp=0.10 / qpmin=0 / qpmax=69 / qpstep=4 / cplxblur=20.0 / qblur=0.5 / vbv_maxrate=35000 / vbv_bufsize=30000 / nal_hrd=vbr / filler=0 / ip_ratio=1.40 / aq=1:1.00
Язык : English
Default : Да
Forced : Нет
Цветовой диапазон : Limited
Основные цвета : BT.709
Характеристики трансфера : BT.709
Коэффициенты матрицы : BT.709

Аудио #1
Идентификатор : 2
Формат : AC-3
Формат/Информация : Audio Coding 3
Расширение режима : CM (complete main)
Параметр Endianness формата : Big
Идентификатор кодека : A_AC3
Продолжительность : 1 ч. 23 м.
Вид битрейта : Постоянный
Битрейт : 384 Кбит/сек
Каналы : 6 каналов
Расположение каналов : Front: L C R, Side: L R, LFE
Частота : 48,0 КГц
Частота кадров : 31,250 кадров/сек (1536 spf)
Метод сжатия : С потерями
Размер потока : 229 Мбайт (1%)
Заголовок : iTunes
Язык : Russian
Default : Да
Forced : Да

Аудио #2
Идентификатор : 3
Формат : DTS
Формат/Информация : Digital Theater Systems
Профиль формата : MA / Core
Режим : 16
Параметр Endianness формата : Big
Идентификатор кодека : A_DTS
Продолжительность : 1 ч. 23 м.
Вид битрейта : Переменный / Постоянный
Битрейт : 3571 Кбит/сек / 1509 Кбит/сек
Каналы : 6 каналов
Расположение каналов : Front: L C R, Side: L R, LFE
Частота : 48,0 КГц
Частота кадров : 93,750 кадра/сек (512 spf)
Битовая глубина : 24 бит
Метод сжатия : Без потерь / Lossy
Размер потока : 2,08 Гбайт (10%)
Заголовок : Original
Язык : English
Default : Нет
Forced : Нет

Текст #1
Идентификатор : 4
Формат : UTF-8
Идентификатор кодека : S_TEXT/UTF8
Идентификатор кодека/Информация : UTF-8 Plain Text
Продолжительность : 1 ч. 19 м.
Битрейт : 71 бит/сек
ElementCount : 826
Размер потока : 41,4 Кбайт (0%)
Заголовок : Full
Язык : Russian
Default : Нет
Forced : Нет

Текст #2
Идентификатор : 5
Формат : UTF-8
Идентификатор кодека : S_TEXT/UTF8
Идентификатор кодека/Информация : UTF-8 Plain Text
Продолжительность : 1 ч. 22 м.
Битрейт : 54 бит/сек
ElementCount : 1014
Размер потока : 33,0 Кбайт (0%)
Заголовок : Full
Язык : English
Default : Нет
Forced : Нет

Меню
00:00:00.000 : en:Глава 01
00:07:28.073 : en:Глава 02
00:12:56.234 : en:Глава 03
00:20:23.514 : en:Глава 04
00:26:56.865 : en:Глава 05
00:33:33.595 : en:Глава 06
00:40:03.943 : en:Глава 07
00:45:48.204 : en:Глава 08
00:51:15.531 : en:Глава 09
01:06:04.961 : en:Глава 10
01:14:16.535 : en:Глава 11
01:18:37.087 : en:Глава 12

pb.wtf



Скачать После полуночи через торрент https://i112.fastpic.ru/big/2020/0627/b7/b2b3392dc25f36fc3eaab1d428d63fb7.jpg Скачать фильм После полуночи через торрент бесплантно в хорошем качестве Описание: После долгих лет гражданского брака Хэнка бросила девушка, но погрузиться в пучину меланхолии и как следует поныть и пострадать у ... 10 10 4
Торрент: Зарегистрирован [2020-06-27 05:10] · скачан: 25 раз
Статус: √ проверено
Размер: 21.72 GB
Как cкачать? Как скачать После полуночи через торрент | qTorrent

% Раздел Тема Автор DL S | L
Фильмы 2019-2020 [DVDrip, WEB-DLRip, HDrip] (DUB, MVO) [ 742 MB ] После полуночи / After Midnight [2019 HDRip] bober100 Скачать
2 | 0
Фильмы [HD 720p, 1080p] (Хороший звук DUB, MVO) [ 10.2 GB ] После полуночи / After Midnight [2019 BDRip 1080p] bober100 Скачать
1 | 0
Фильмы [HD 720p, 1080p] (Хороший звук DUB, MVO) [ 3.11 GB ] После полуночи / After Midnight [2019 BDRip 720p] bober100 Скачать
1 | 0
Фильмы 2019-2020 [DVDrip, WEB-DLRip, HDrip] (DUB, MVO) [ 1.46 GB ] После полуночи / After Midnight [2019 BDRip] bober100 Скачать
3 | 0
Порно фильмы HD [ 3.55 GB ] После Полуночи / After Midnight [2012 Vignettes Straight WEB-DL 720p] Empinado Скачать
1 | 0

28-11-2019 20:33  

Отключить всю рекламу на сайте

29-08-2020 13:07 После полуночи Скачать торрент  

Фильм какое то фуфло, даже добавить не чего. Сюжет бестолковыйpb.wtf



    Дорогой пользователь! Огромная просьба, поблагодарите релизера, оцените раздачу и оставьте свои комментарий, если Вы скачали После полуночи через торрент бесплатно! Внесите свою лепту в развитие PiratBit!
    Комментировать посты могут только пользователи прошедшие не сложную регистрацию
    Показать сообщения:    

    После полуночи через торрент
    Скачать бесплатно После полуночи
    После полуночи скачать торрент
    После полуночи смотреть онлайн
    Cкачать фильм После полуночи бесплатно
    После полуночи скачать торрент в хорошем качестве
    После полуночи смотреть онлайн бесплатно в хорошем качестве


    Вы не можете начинать темы
    Вы не можете отвечать на сообщения
    Вы не можете редактировать свои сообщения
    Вы не можете удалять свои сообщения
    Вы не можете голосовать в опросах
    Вы не можете прикреплять файлы к сообщениям
    Вы можете скачивать файлы