Ссылка на приватное зеркало нашего сайта всего за 1$. Внимание количество ограничено!!!

2 сезон

iTunes

1 сезон

1

iTunes

iTunes

iTunes

1 сезон

RePack

30

ИГРА 18+

pack

ВАЖНО

!!Акция!!

Alien_RageХит недели

RePack

MK11
pack

Забери бонус

RePack

jed

!!Акция!!

Alien_Rage

RePack

fifa19

RePack

Assassins Creed: Odyssey

RePack

NEED FOR SPEED™ PAYBACK

4 сезон

9 сезон

Бесстыжие 9 сезон

Все сериалы

все сериалы на PB.wtf

RePack

FAR CRY 5
  

Джанго, прощай! / Texas, addio! (Фердинандо Балди) [1966, Вестерн, BDRip 720p] 2xMVO от ExKinoRay pb.wtf

Джанго, прощай! через торрент pb.wtf

Размер: 4.89 GB | Добавлен: 3 мес. 24 д. назад | Торрент скачан:3 раза
Скачать  

27-06-2020 05:33 Джанго, прощай! Скачать торрент  

Джанго прощай! / Texas addio!
Год выпуска: 1966
Страна: Италия, Испания
Жанр: Вестерн
Продолжительность: 01:32:04
Перевод: Профессиональный (многоголосый)

Режиссер: Фердинандо Балди

Премьера в мире: 28 августа 1966

rating

В ролях: Франко Неро, Альберто Дэлль’Акква, Элиза Монтес, Хосе Гуардиола, Ливио Лоренцон, Уго Бланко, Луиджи Пистилли, Антонелла Мурджа, Джино Перниче, Джованни Иван Скратулья

Описание: Вестерн начинается с крутейшей перестрелки между двумя бесстрашными парнями, готовыми порвать друг друга на клочки в этом вмиг обезлюдевшем, пустынном типичном городке американского Среднего Запада. Жители попрятались кто куда от страха за свою бренную жизнь.Но вдруг, откуда ни возьмись, между ними встает молчаливый и мрачный стрелок, один взгляд которого не предвещает ничего хорошего этим нарушителям спокойствия, а скупые жесты сразу наводят их на мысль, что следует убираться из города поскорее, лучше всего прямо сейчас.Мертвые улицы городка тут же оживленно вскипают от людского столпотворения, народ заполняет магазины, спешит насладиться жизнью… Но беда не хочет отступать с уже завоеванных позиций. Она уже совсем рядом…

Качество: BDRip 720p
Формат: MKV
Видео кодек: MPEG4
Аудио кодек: AC3
Видео: 6200 Кбит/с, 1280x544, 23.976 кадра/сек
Аудио#1: Русский (AC3, 2 ch, 192 Кбит/с, 48 КГц) - Cinema Prestige
Аудио#2: Русский (AC3, 2 ch, 448 Кбит/с, 48 КГц) - ДВД-Магия
Аудио#3: Итальянский (DTS, 1 ch, 768 Кбит/с, 48 КГц)
Релиз от:
x264 [info]: profile High, level 4.1
x264 [info]: frame I:1033 Avg QP:17.36 size:132844
x264 [info]: frame P:25729 Avg QP:19.81 size: 57330
x264 [info]: frame B:105688 Avg QP:20.89 size: 25252
-----
Общее
Уникальный идентификатор : 196728080576659535281314830366174347308 (0x9400733B9E169ECB83464AE73C78002C)
Полное имя : D:\Ray\Texas.addio.1966.BDRip720p.ExKinoRay.mkv
Формат : Matroska
Версия формата : Version 2
Размер файла : 4,89 Гбайт
Продолжительность : 1 ч. 32 м.
Общий поток : 7611 Кбит/сек
Дата кодирования : UTC 2020-06-27 03:41:12
Программа кодирования : mkvmerge v7.8.0 ('River Man') 32bit built on Apr 3 2015 12:11:22
Библиотека кодирования : libebml v1.3.1 + libmatroska v1.4.2

Видео
Идентификатор : 1
Формат : AVC
Формат/Информация : Advanced Video Codec
Профиль формата : High@L4.1
Настройки формата : CABAC / 12 Ref Frames
Параметр CABAC формата : Да
Параметр RefFrames формата : 12 кадров
Идентификатор кодека : V_MPEG4/ISO/AVC
Продолжительность : 1 ч. 32 м.
Битрейт : 6200 Кбит/сек
Ширина : 1280 пикселей
Высота : 544 пикселя
Соотношение сторон : 2,35:1
Режим частоты кадров : Постоянный
Частота кадров : 23,976 (24000/1001) кадра/сек
Цветовое пространство : YUV
Субдискретизация насыщенности : 4:2:0
Битовая глубина : 8 бит
Тип развёртки : Прогрессивная
Бит/(Пиксели*Кадры) : 0.371
Размер потока : 3,89 Гбайт (80%)
Библиотека кодирования : x264 core 152 r2851 ba24899
Настройки программы : cabac=1 / ref=12 / deblock=1:-3:-2 / analyse=0x3:0x113 / me=umh / subme=10 / psy=1 / psy_rd=1.00:0.10 / mixed_ref=1 / me_range=32 / chroma_me=1 / trellis=2 / 8x8dct=1 / cqm=0 / deadzone=21,11 / fast_pskip=0 / chroma_qp_offset=-3 / threads=6 / lookahead_threads=1 / sliced_threads=0 / nr=0 / decimate=0 / interlaced=0 / bluray_compat=0 / constrained_intra=0 / bframes=14 / b_pyramid=2 / b_adapt=2 / b_bias=0 / direct=3 / weightb=1 / open_gop=0 / weightp=2 / keyint=240 / keyint_min=23 / scenecut=40 / intra_refresh=0 / rc=2pass / mbtree=0 / bitrate=6200 / ratetol=1.0 / qcomp=0.60 / qpmin=0 / qpmax=69 / qpstep=4 / cplxblur=20.0 / qblur=0.5 / ip_ratio=1.40 / pb_ratio=1.30 / aq=3:1.00
Язык : English
Default : Да
Forced : Нет
Цветовой диапазон : Limited
Основные цвета : BT.709
Характеристики трансфера : BT.709
Коэффициенты матрицы : BT.709

Аудио #1
Идентификатор : 2
Формат : AC-3
Формат/Информация : Audio Coding 3
Коммерческое название : Dolby Digital
Идентификатор кодека : A_AC3
Продолжительность : 1 ч. 32 м.
Вид битрейта : Постоянный
Битрейт : 192 Кбит/сек
Каналы : 2 канала
Channel layout : L R
Частота : 48,0 КГц
Частота кадров : 31,250 кадров/сек (1536 SPF)
Битовая глубина : 16 бит
Метод сжатия : С потерями
Размер потока : 126 Мбайт (3%)
Заголовок : Cinema Prestige
Язык : Russian
ServiceKind/String : Complete Main
Default : Да
Forced : Нет

Аудио #2
Идентификатор : 3
Формат : AC-3
Формат/Информация : Audio Coding 3
Коммерческое название : Dolby Digital
Идентификатор кодека : A_AC3
Продолжительность : 1 ч. 32 м.
Вид битрейта : Постоянный
Битрейт : 448 Кбит/сек
Каналы : 2 канала
Channel layout : L R
Частота : 48,0 КГц
Частота кадров : 31,250 кадров/сек (1536 SPF)
Битовая глубина : 16 бит
Метод сжатия : С потерями
Размер потока : 295 Мбайт (6%)
Заголовок : ДВД-Магия
Язык : Russian
ServiceKind/String : Complete Main
Default : Нет
Forced : Нет

Аудио #3
Идентификатор : 4
Формат : DTS
Формат/Информация : Digital Theater Systems
Идентификатор кодека : A_DTS
Продолжительность : 1 ч. 32 м.
Вид битрейта : Постоянный
Битрейт : 768 Кбит/сек
Каналы : 1 канал
Channel layout : C
Частота : 48,0 КГц
Частота кадров : 93,750 кадра/сек (512 SPF)
Битовая глубина : 24 бит
Метод сжатия : С потерями
Размер потока : 506 Мбайт (10%)
Язык : Italian
Default : Нет
Forced : Нет

Меню
00:00:00.000 : en:00:00:00.000
00:08:07.821 : en:00:08:07.821
00:15:59.000 : en:00:15:59.000
00:25:22.604 : en:00:25:22.604
00:33:28.340 : en:00:33:28.340
00:41:17.892 : en:00:41:17.892
00:50:35.908 : en:00:50:35.908
00:57:29.071 : en:00:57:29.071
01:03:44.237 : en:01:03:44.237
01:09:55.775 : en:01:09:55.775
01:18:00.384 : en:01:18:00.384
01:24:57.426 : en:01:24:57.426

pb.wtf



Скачать Джанго, прощай! через торрент http://s015.radikal.ru/i333/1404/62/16d93c7980c2.jpg Скачать фильм Джанго, прощай! через торрент бесплантно в хорошем качестве Описание: Вестерн начинается с крутейшей перестрелки между двумя бесстрашными парнями, готовыми порвать друг друга на клочки в этом вмиг ... 5 10 1
Торрент: Зарегистрирован [2020-06-27 05:33] · скачан: 3 раз
Статус: √ проверено
Размер: 4.89 GB
Как cкачать? Как скачать Джанго, прощай! через торрент | qTorrent

28-11-2019 20:33  

Отключить всю рекламу на сайте

    Дорогой пользователь! Огромная просьба, поблагодарите релизера, оцените раздачу и оставьте свои комментарий, если Вы скачали Джанго, прощай! через торрент бесплатно! Внесите свою лепту в развитие PiratBit!
    Комментировать посты могут только пользователи прошедшие не сложную регистрацию
    Показать сообщения:    

    Джанго, прощай! через торрент
    Скачать бесплатно Джанго, прощай!
    Джанго, прощай! скачать торрент
    Джанго, прощай! смотреть онлайн
    Cкачать фильм Джанго, прощай! бесплатно
    Джанго, прощай! скачать торрент в хорошем качестве
    Джанго, прощай! смотреть онлайн бесплатно в хорошем качестве


    Вы не можете начинать темы
    Вы не можете отвечать на сообщения
    Вы не можете редактировать свои сообщения
    Вы не можете удалять свои сообщения
    Вы не можете голосовать в опросах
    Вы не можете прикреплять файлы к сообщениям
    Вы можете скачивать файлы