Ссылка на приватное зеркало нашего сайта всего за 1$. Внимание количество ограничено!!!

2 сезон

iTunes

1 сезон

1

iTunes

iTunes

iTunes

1 сезон

RePack

30

ИГРА 18+

pack

ВАЖНО

!!Акция!!

Alien_RageХит недели

RePack

MK11
pack

Забери бонус

RePack

jed

!!Акция!!

Alien_Rage

RePack

fifa19

RePack

Assassins Creed: Odyssey

RePack

NEED FOR SPEED™ PAYBACK

4 сезон

9 сезон

Бесстыжие 9 сезон

Все сериалы

все сериалы на PB.wtf

RePack

FAR CRY 5
  

Водоворот / Сезон: 1 / Серии: 1-8 из 8 (Андрей Загидуллин) [2020, Детектив, драма, криминал, триллер, WEBRip 1080p] pb.wtf

Водоворот через торрент pb.wtf

Раздают: 7 [ 1 KB/s ]
Размер: 14.78 GB | Добавлен: 2 мес. 17 д. назад | Торрент скачан:291 раз
Скачать  

27-06-2020 09:47 Водоворот Скачать торрент  

Водоворот
Год выпуска: 2020
Страна: Россия
Студия: Марс Медиа
Жанр: Детектив, драма, криминал, триллер
Продолжительность: ~ 00:44:00
Субтитры: отсутствуют

Режиссер: Андрей Загидуллин



В ролях: Владимир Вдовиченков, Алёна Михайлова, Иван Макаревич, Владислав Абашин, Юлия Мельникова, Аристарх Венес, Ирина Алфёрова, Артём Сучков, Олег Васильков, Евгений Харитонов (II), Игорь Миркурбанов, Ольга Ломоносова

Описание: В городском коллекторе группа следователей обнаруживает убитых подростков, которых никто никогда не разыскивал. Раскручивая шаг за шагом это дело, полицейские сталкиваются лицом к лицу с безусловным злом — водоворотом большого города, который засасывает и уничтожает слабых — тех, кого никто не любит и не ждет дома. Зло безнаказанно уничтожает людей, и каждый из героев столкнется с ним лично, заглянет внутрь себя, чтобы встретиться с собственными демонами и страхами.

Качество: WEBRip 1080p
Формат: MKV

Видео: 1920х960 (2,000), 25 fps, AVC MPEG-4 (x264), High@L4.1 ~ 5800 kbps avg, 0.125 bit/pixel
Аудио: AC3 Dolby Digital, 48.0 kHz, 2/0 (L,R) ch, 192 kbps
скриншот  скриншот  скриншот  скриншот  скриншот  

General
Unique ID : 194996485631263665078494117453823713965 (0x92B2F502B84C567EA1B39F049D93A2AD)
Complete name : D:\Vodorot.2020.WEBRip.(1080p).ExKinoRay\Vodorot.E01.2020.WEBRip.(1080p).ExKinoRay.mkv
Format : Matroska
Format version : Version 4 / Version 2
File size : 1.86 GiB
Duration : 43 min 50 s
Overall bit rate : 6 066 kb/s
Encoded date : UTC 2020-06-27 08:05:40
Writing application : mkvmerge v6.9.1 ('Blue Panther') 64bit built on Apr 18 2014 18:23:38
Writing library : libebml v1.3.0 + libmatroska v1.4.1

Video
ID : 1
Format : AVC
Format/Info : Advanced Video Codec
Format profile : High@L4.1
Format settings : CABAC / 4 Ref Frames
Format settings, CABAC : Yes
Format settings, ReFrames : 4 frames
Codec ID : V_MPEG4/ISO/AVC
Duration : 43 min 50 s
Bit rate : 5 753 kb/s
Width : 1 920 pixels
Height : 960 pixels
Display aspect ratio : 2.000
Frame rate mode : Constant
Frame rate : 25.000 FPS
Color space : YUV
Chroma subsampling : 4:2:0
Bit depth : 8 bits
Scan type : Progressive
Bits/(Pixel*Frame) : 0.125
Stream size : 1.76 GiB (95%)
Default : No
Forced : No
Color range : Limited
Color primaries : BT.709
Transfer characteristics : BT.709
Matrix coefficients : BT.709

Audio
ID : 2
Format : AC-3
Format/Info : Audio Coding 3
Codec ID : A_AC3
Duration : 43 min 50 s
Bit rate mode : Constant
Bit rate : 192 kb/s
Channel(s) : 2 channels
Channel positions : Front: L R
Sampling rate : 48.0 kHz
Frame rate : 31.250 FPS (1536 SPF)
Bit depth : 16 bits
Compression mode : Lossy
Stream size : 60.2 MiB (3%)
Language : Russian
Service kind : Complete Main
Default : Yes
Forced : No

Внимание! Раздача ведётся путём добавления новых серий; при каждом добавлении создаётся новый торрент.
Чтобы начать докачку новой серии, пользователям необходимо сделать следующее:
1. Остановить скачивание;
2. Удалить старый торрент у себя из клиента (старые серии удалять не надо);
3. Скачать новый торрент и запустить его у себя в клиенте вместо старого, при этом указать клиенту путь в старую папку куда и должно происходить скачивание новых серий. Ваш клиент при этом должен произвести хеширование (проверку) старой папки и будет докачивать только те серии, которых у вас ещё нет. Старые серии при этом не удаляются, а продолжают раздаваться! Eсли вы уже удалили старые серии, то предотвратить повторную закачку старых серий можно, отжав галочку в соответствующих местах при запуске нового торрента.

pb.wtf



Скачать Водоворот через торрент https://img10.lostpic.net/2020/06/27/d9fb5f83f90a002b34800832e52204cb.th.jpg Скачать фильм Водоворот через торрент бесплантно в хорошем качестве Описание: В городском коллекторе группа следователей обнаруживает убитых подростков, которых никто никогда не разыскивал. Раскручивая шаг ... 9.9 10 28
Info! Золотая раздача, скачанное не засчитывается.
Торрент: Зарегистрирован [2020-08-08 18:40] · скачан: 291 раз
Статус: √ проверено
Размер: 14.78 GB
Как cкачать? Как скачать Водоворот через торрент | qTorrent

% Раздел Тема Автор DL S | L
Наши сериалы [ 4.29 GB ] Водоворот / Сезон: 1 / Серии: 1-8 из 8 [2020 WEBRip] bober100 Скачать
11 | 1
Наши сериалы [ 4.84 GB ] Водоворот / Сезон: 1 / Серии: 1-8 из 8 [2020 WEBRip] bober100 Скачать
4 | 1
Наши сериалы [ 10.12 GB ] Водоворот / Сезон: 1 / Серии: 1-8 из 8 [2020 WEBRip 720p] bober100 Скачать
6 | 1
Наши сериалы [ 5.31 GB ] Водоворот / Сезон: 1 / Серии: 1-8 из 8 [2020 WEBRip-AVC] bober100 Скачать
4 | 0

28-11-2019 20:33  

Отключить всю рекламу на сайте

17-08-2020 10:09 Водоворот Скачать торрент  

Хороший сериал, посмотреть стоит один разpb.wtf



17-08-2020 17:25 Водоворот Скачать торрент  

Золото. Очень понравился, серьезный сюжет и великолепная игра актеровpb.wtf



    Дорогой пользователь! Огромная просьба, поблагодарите релизера, оцените раздачу и оставьте свои комментарий, если Вы скачали Водоворот через торрент бесплатно! Внесите свою лепту в развитие PiratBit!
    Комментировать посты могут только пользователи прошедшие не сложную регистрацию
    Показать сообщения:    

    Водоворот через торрент
    Скачать бесплатно Водоворот
    Водоворот скачать торрент
    Водоворот смотреть онлайн
    Cкачать фильм Водоворот бесплатно
    Водоворот скачать торрент в хорошем качестве
    Водоворот смотреть онлайн бесплатно в хорошем качестве


    Вы не можете начинать темы
    Вы не можете отвечать на сообщения
    Вы не можете редактировать свои сообщения
    Вы не можете удалять свои сообщения
    Вы не можете голосовать в опросах
    Вы не можете прикреплять файлы к сообщениям
    Вы можете скачивать файлы