Ссылка на приватное зеркало всего за 1$. Внимание количество ограничено!!!

iTunes

iTunes

iTunes

1

iTunes

iTunes

iTunes

iTunes

iTunes

30
pack

$ от Little Big

ВАЖНО

!!Акция!!

Alien_RageХит недели

RePack

Resident Evil 21

ИГРА 18+

pack

RePack

jed

!!Акция!!

Alien_Rage

RePack

fifa19

RePack

Assassins Creed: Odyssey

RePack

NEED FOR SPEED™ PAYBACK

4 сезон

9 сезон

Бесстыжие 9 сезон

Все сериалы

все сериалы на PB.wtf

RePack

FAR CRY 5
  

Капитан Марвел / Captain Marvel (Анна Боден, Райан Флек) [2019 г., Фантастика, Боевик, Приключения, WEB-DLRip 720p / 60 FPS, Дубляж] ( Open Matte ) от R.G. HD-Films pb.wtf

Капитан Марвел через торрент pb.wtf

Раздают: 14 [ 0 KB/s ]
Размер: 5.1 GB | Добавлен: 11 д. назад | Торрент скачан:108 раз
Скачать  

28-06-2020 16:14 Капитан Марвел Скачать торрент  

Капитан Марвел / Captain Marvel
Год выпуска: : 2019
Страна: : США, Австралия
Жанр: : фантастика, боевик, приключения
Продолжительность: 02:03:41
Перевод: Дубляж
Субтитры: Russian, English
Локализованная версия

Режиссер: Анна Боден, Райан Флек

Бюджет: $175 000 000
Премьера в мире: 27 февраля 2019

rating

В ролях: Бри Ларсон, Сэмюэл Л. Джексон, Бен Мендельсон, Джуд Лоу, Аннетт Бенинг, Джимон Хонсу, Ли Пейс, Лашана Линч, Джемма Чан, Кларк Грегг

Описание: После столкновения с враждующими инопланетными расами, пилот военно-воздушных сил Кэрол Дэнверс обретает суперсилу и становится неуязвимой. Героине предстоит совладать со своими новыми способностями, чтобы противостоять могущественному врагу.

Качество видео: WEB-DLRip 720p / 60 FPS
Формат: MKV
Видео кодек: H.264
Аудио кодек: AC3
Видео : x264, 1280 x 720 ( 16:9 ), 5521 kbps, 60,000 fps, ( 0.100 bpp)
Аудио : Русский, AC-3, 48.0 KHz, 6 ch, 384 Kbps
Релиз от:

скриншот   скриншот   скриншот   скриншот   скриншот   скриншот  Автор рипа: slaventi-69
x264 [info]: frame I:2212 Avg QP:14.03 size: 74678
x264 [info]: frame P:104765 Avg QP:15.42 size: 26591
x264 [info]: frame B:337771 Avg QP:18.03 size: 6408
x264 [info]: consecutive B-frames: 2.3% 2.4% 8.2% 14.0% 63.4% 9.6%


Общее
Уникальный идентификатор : 65501300267558178421899856292142166609 (0x314717705B0291CEBA1E012EAABCB251)
Полное имя : F:\Captain.Marvel.(2019).WEBRip.720p.(60 Fps).(Open Matte).mkv
Формат : Matroska
Версия формата : Version 4
Размер файла : 5,10 Гбайт
Продолжительность : 2 ч. 3 м.
Общий поток : 5909 Кбит/сек
Название фильма : Капитан Марвел / Captain Marvel (2019) WEBRip 720p (60 Fps) | Open Matte | Локализованная версия
Дата кодирования : UTC 2020-06-22 10:33:02
Программа кодирования : mkvmerge v35.0.0 ('All The Love In The World') 64-bit
Библиотека кодирования : libebml v1.3.9 + libmatroska v1.5.2

Видео
Идентификатор : 1
Формат : AVC
Формат/Информация : Advanced Video Codec
Профиль формата : High@L4.1
Настройки формата : CABAC / 9 Ref Frames
Параметр CABAC формата : Да
Параметр RefFrames формата : 9 кадров
Идентификатор кодека : V_MPEG4/ISO/AVC
Продолжительность : 2 ч. 3 м.
Битрейт : 5521 Кбит/сек
Ширина : 1280 пикселей
Высота : 720 пикселей
Соотношение сторон : 16:9
Режим частоты кадров : Постоянный
Частота кадров : 60,000 кадров/сек
Цветовое пространство : YUV
Субдискретизация насыщенности : 4:2:0
Битовая глубина : 8 бит
Тип развёртки : Прогрессивная
Бит/(Пиксели*Кадры) : 0.100
Размер потока : 4,76 Гбайт (93%)
Заголовок : slaventi-69 ( R.G. HD-Films | 60 fps )
Библиотека кодирования : x264 core 130 r2273 b3065e6
Настройки программы : cabac=1 / ref=9 / deblock=1:0:0 / analyse=0x3:0x133 / me=umh / subme=9 / psy=1 / psy_rd=1.00:0.00 / mixed_ref=1 / me_range=32 / chroma_me=1 / trellis=2 / 8x8dct=1 / cqm=0 / deadzone=21,11 / fast_pskip=0 / chroma_qp_offset=-2 / threads=10 / lookahead_threads=2 / sliced_threads=0 / nr=0 / decimate=1 / interlaced=0 / bluray_compat=0 / constrained_intra=0 / bframes=5 / b_pyramid=2 / b_adapt=2 / b_bias=0 / direct=1 / weightb=1 / open_gop=0 / weightp=2 / keyint=600 / keyint_min=23 / scenecut=40 / intra_refresh=0 / rc=crf / mbtree=0 / crf=16.0 / qcomp=0.60 / qpmin=0 / qpmax=69 / qpstep=4 / ip_ratio=1.40 / pb_ratio=1.30 / aq=1:1.00
Язык : English
Default : Да
Forced : Нет

Аудио
Идентификатор : 2
Формат : AC-3
Формат/Информация : Audio Coding 3
Коммерческое название : Dolby Digital
Идентификатор кодека : A_AC3
Продолжительность : 2 ч. 3 м.
Вид битрейта : Постоянный
Битрейт : 384 Кбит/сек
Каналы : 6 каналов
Channel layout : L R C LFE Ls Rs
Частота : 48,0 КГц
Частота кадров : 31,250 кадров/сек (1536 SPF)
Битовая глубина : 16 бит
Метод сжатия : С потерями
Размер потока : 339 Мбайт (6%)
Заголовок : Dub
Язык : Russian
ServiceKind/String : Complete Main
Default : Да
Forced : Нет

Текст #1
Идентификатор : 3
Формат : UTF-8
Идентификатор кодека : S_TEXT/UTF8
Идентификатор кодека/Информация : UTF-8 Plain Text
Продолжительность : 2 ч. 2 м.
Битрейт : 64 бит/сек
ElementCount : 1314
Размер потока : 58,1 Кбайт (0%)
Язык : Russian
Default : Нет
Forced : Нет

Текст #2
Идентификатор : 4
Формат : UTF-8
Идентификатор кодека : S_TEXT/UTF8
Идентификатор кодека/Информация : UTF-8 Plain Text
Продолжительность : 1 ч. 53 м.
Битрейт : 46 бит/сек
ElementCount : 1422
Размер потока : 38,8 Кбайт (0%)
Язык : English
Default : Нет
Forced : Нет

Просьба к переливающим на другие сайты, в оформлении указывайте пожалуйста авторство группы R.G. HD-Films pb.wtf



Скачать Капитан Марвел через торрент https://i91.fastpic.ru/big/2019/1101/70/cd31f01e2c33de3b6dc8bdae85def170.jpg Скачать фильм Капитан Марвел через торрент бесплантно в хорошем качестве Описание: После столкновения с враждующими инопланетными расами, пилот военно-воздушных сил Кэрол Дэнверс обретает суперсилу и становится ... 10 10 9
Info! Золотая раздача, скачанное не засчитывается.
Торрент: Зарегистрирован [2020-06-28 16:14] · скачан: 108 раз
Статус: √ проверено
Размер: 5.1 GB
Как cкачать? Как скачать Капитан Марвел через торрент | qTorrent



Последний раз редактировалось: slaventi-69 (2020-06-28 16:24), всего редактировалось 1 раз

28-11-2019 20:33  

Отключить всю рекламу на сайте

28-06-2020 19:41 Капитан Марвел Скачать торрент  

Спасибо за Золото.
Раздача стала золотой благодаря:
Ворон(5000)
pb.wtf



28-06-2020 20:17 Капитан Марвел Скачать торрент  

Captain Feminist
XDpb.wtf



30-06-2020 08:59 Капитан Марвел Скачать торрент  

Оу! Кинчик в моём формате! В коллекцию однозначно! Ждём продолжений! pb.wtf



    Дорогой пользователь! Огромная просьба, поблагодарите релизера, оцените раздачу и оставьте свои комментарий, если Вы скачали Капитан Марвел через торрент бесплатно! Внесите свою лепту в развитие PiratBit!
    Комментировать посты могут только пользователи прошедшие не сложную регистрацию
    Показать сообщения:    

    Капитан Марвел через торрент
    Скачать бесплатно Капитан Марвел
    Капитан Марвел скачать торрент
    Капитан Марвел смотреть онлайн
    Cкачать фильм Капитан Марвел бесплатно
    Капитан Марвел скачать торрент в хорошем качестве
    Капитан Марвел смотреть онлайн бесплатно в хорошем качестве


    Вы не можете начинать темы
    Вы не можете отвечать на сообщения
    Вы не можете редактировать свои сообщения
    Вы не можете удалять свои сообщения
    Вы не можете голосовать в опросах
    Вы не можете прикреплять файлы к сообщениям
    Вы можете скачивать файлы