Ссылка на приватное зеркало всего за 1$. Внимание количество ограничено!!!

iTunes

iTunes

iTunes

1

iTunes

iTunes

iTunes

iTunes

iTunes

30
pack

$ от Little Big

ВАЖНО

!!Акция!!

Alien_RageХит недели

RePack

Resident Evil 21

ИГРА 18+

pack

RePack

jed

!!Акция!!

Alien_Rage

RePack

fifa19

RePack

Assassins Creed: Odyssey

RePack

NEED FOR SPEED™ PAYBACK

4 сезон

9 сезон

Бесстыжие 9 сезон

Все сериалы

все сериалы на PB.wtf

RePack

FAR CRY 5
  

Тьма / Dark / Сезон: 3 / Серии: 1-8 из 8 (Баран бо Одар) [2020, триллер, фантастика, драма, криминал, детектив, WEBRip 1080p] MVO [NewStudio] pb.wtf

Тьма через торрент pb.wtf

Раздают: 8 [ 589 KB/s ] Качают: 5 [ 0 KB/s ]
Размер: 22.63 GB | Добавлен: 2 д. 3 ч. назад | Торрент скачан:30 раз
Скачать  

30-06-2020 02:18 Тьма Скачать торрент  

Тьма | Dark Год выпуска: 2020
Страна: Германия, США
Студия: Netflix
Жанр: Триллер, драма, криминал, детектив, фантастика
Продолжительность: ~ 00:54:00
Перевод: Профессиональный (многоголосый) | NewStudio
Субтитры: Русские (Forced, Full |«Netflix»|, английские (Full, SDH), немецкие (Forced, Full)

Режиссёр: Баран бо Одар

В ролях: Оливер Мазуччи, Каролина Эйхгорн, Йордис Трибель, Луис Хофманн, Майя Шёне, Штефан Кампвирт, Андреас Пичман, Дебора Кауфман, Татя Зайбт и др.

Описание: История четырёх семей, живущих спокойной и размеренной жизнью в маленьком немецком городке. Видимая идиллия рушится, когда бесследно исчезают двое детей и воскресают тёмные тайны прошлого.

rating

Качество: WEBRip 1080p
Формат: MKV

Видео: 1920x960, 24 fps, ~ 5400 kbps
Аудио №1: AC3, 6 ch, 48 kHz, 384 kbps | NewStudio
Аудио №2: AC3, 6 ch, 48 kHz, 640 kbps | Original
скриншот  скриншот  скриншот  скриншот  

Complete name : D:Dark_(s03)_NewStudio_1080pDark.2020.S03E01.1080p.NF.WEBRip.DD5.1.x264-NTb_EniaHD.mkv
Format : Matroska
Format version : Version 2
File size : 2.73 GiB
Duration : 1 h 1 min
Overall bit rate : 6 359 kb/s
Encoded date : UTC 2020-06-30 16:23:04
Writing application : mkvmerge v4.9.1 ('Ich will') сборка от Jul 11 2011 23:53:15
Writing library : libebml v1.2.1 + libmatroska v1.1.1

Video
ID : 1
Format : AVC
Format/Info : Advanced Video Codec
Format profile : High@L4.1
Format settings : CABAC / 4 Ref Frames
Format settings, CABAC : Yes
Format settings, Reference : 4 frames
Codec ID : V_MPEG4/ISO/AVC
Duration : 1 h 1 min
Bit rate : 5 208 kb/s
Width : 1 920 pixels
Height : 960 pixels
Display aspect ratio : 2.000
Frame rate mode : Constant
Frame rate : 24.000 FPS
Color space : YUV
Chroma subsampling : 4:2:0
Bit depth : 8 bits
Scan type : Progressive
Bits/(Pixel*Frame) : 0.118
Stream size : 2.23 GiB (82%)
Title : Release by EniaHD
Writing library : x264 core 157 r2969 d4099dd
Encoding settings : cabac=1 / ref=4 / deblock=1:-3:-3 / analyse=0x3:0x133 / me=umh / subme=10 / psy=1 / psy_rd=1.00:0.00 / mixed_ref=1 / me_range=48 / chroma_me=1 / trellis=2 / 8x8dct=1 / cqm=0 / deadzone=21,11 / fast_pskip=0 / chroma_qp_offset=-2 / threads=24 / lookahead_threads=4 / sliced_threads=0 / nr=0 / decimate=0 / interlaced=0 / bluray_compat=0 / constrained_intra=0 / bframes=9 / b_pyramid=0 / b_adapt=2 / b_bias=0 / direct=3 / weightb=1 / open_gop=0 / weightp=2 / keyint=250 / keyint_min=24 / scenecut=40 / intra_refresh=0 / rc_lookahead=60 / rc=crf / mbtree=0 / crf=17.5 / qcomp=0.60 / qpmin=10 / qpmax=51 / qpstep=4 / vbv_maxrate=62500 / vbv_bufsize=78125 / crf_max=0.0 / nal_hrd=none / filler=0 / ip_ratio=1.40 / pb_ratio=1.30 / aq=3:0.75
Default : Yes
Forced : No

Audio #1
ID : 2
Format : AC-3
Format/Info : Audio Coding 3
Commercial name : Dolby Digital
Codec ID : A_AC3
Duration : 1 h 1 min
Bit rate mode : Constant
Bit rate : 384 kb/s
Channel(s) : 6 channels
Channel layout : L R C LFE Ls Rs
Sampling rate : 48.0 kHz
Frame rate : 31.250 FPS (1536 SPF)
Compression mode : Lossy
Stream size : 169 MiB (6%)
Title : NewStudio
Language : Russian
Service kind : Complete Main
Default : Yes
Forced : No

Audio #2
ID : 3
Format : AC-3
Format/Info : Audio Coding 3
Commercial name : Dolby Digital
Codec ID : A_AC3
Duration : 1 h 1 min
Bit rate mode : Constant
Bit rate : 640 kb/s
Channel(s) : 6 channels
Channel layout : L R C LFE Ls Rs
Sampling rate : 48.0 kHz
Frame rate : 31.250 FPS (1536 SPF)
Compression mode : Lossy
Stream size : 281 MiB (10%)
Language : German
Service kind : Complete Main
Default : No
Forced : No

Text #1
ID : 4
Format : UTF-8
Codec ID : S_TEXT/UTF8
Codec ID/Info : UTF-8 Plain Text
Title : Forced |NS|
Language : Russian
Default : Yes
Forced : No

Text #2
ID : 5
Format : UTF-8
Codec ID : S_TEXT/UTF8
Codec ID/Info : UTF-8 Plain Text
Title : Full |NF|
Language : Russian
Default : No
Forced : No

Text #3
ID : 6
Format : UTF-8
Codec ID : S_TEXT/UTF8
Codec ID/Info : UTF-8 Plain Text
Title : Full
Language : English
Default : No
Forced : No

Text #4
ID : 7
Format : UTF-8
Codec ID : S_TEXT/UTF8
Codec ID/Info : UTF-8 Plain Text
Title : SDH
Language : English
Default : No
Forced : No

Text #5
ID : 8
Format : UTF-8
Codec ID : S_TEXT/UTF8
Codec ID/Info : UTF-8 Plain Text
Title : Forced
Language : German
Default : No
Forced : No

Text #6
ID : 9
Format : UTF-8
Codec ID : S_TEXT/UTF8
Codec ID/Info : UTF-8 Plain Text
Title : Full
Language : German
Default : No
Forced : No

Menu
00:03:35.520 : en:Credit start
00:04:58.020 : en:Credit end

Когда раздача ведётся путём добавления новых серий, при каждом добавлении создётся новый торрент. Чтобы начать докачку новой серии, пользователям необходимо сделать следующее:
(1) остановить скачивание,
(2) удалить старый торрент у себя из клиента (старые серии удалять не надо),
(3) скачать новый торрент и запустить его у себя в клиенте вместо старого, при этом указать клиенту путь в старую папку, куда и должно происходить скачивание новых серий.
Ваш клиент при этом должен произвести хеширование (проверку) старой папки (если не производит сам - помогите ему сделать это), и будет докачивать только те серии, которых у вас ещё нет. Старые серии при этом не удаляются, а продолжают раздаваться!
Eсли вы уже удалили старые серии, то предотвратить повторную закачку старых серий можно, отжав галочку в соответсвующих местах при запуске нового торрента. По возможности, желательно не удалять старые серии как можно дольше, чтобы релизёр не столько продолжал раздавать старые серии, а смог сконцентрироваться на новых.

pb.wtf



Скачать Тьма через торрент http://i112.fastpic.ru/big/2020/0621/3e/3f7c056037e177ee055e4c0e875d163e.png Скачать фильм Тьма через торрент бесплантно в хорошем качестве Описание: История четырёх семей, живущих спокойной и размеренной жизнью в маленьком немецком городке. Видимая идиллия рушится, когда ... 9.7 10 7
Торрент: Зарегистрирован [2020-07-05 00:21] · скачан: 30 раз
Статус: √ проверено
Размер: 22.63 GB
Как cкачать? Как скачать Тьма через торрент | qTorrent

% Раздел Тема Автор DL S | L
Зарубежные сериалы [ 21.73 GB ] Тьма / Dark / Сезон: 3 / Серии: 1-8 из 8 [2020 WEBRip 1080p] MVO [Jaskier] bober100 Скачать
3 | 0
Зарубежные сериалы [ 11.09 GB ] Тьма / Dark / Сезон: 3 / Серии: 1-8 из 8 [2020 WEBRip 720p] MVO [Jaskier] bober100 Скачать
2 | 0
Зарубежные сериалы [ 6.03 GB ] Тьма / Dark / Сезон: 3 / Серии: 1-8 из 8 [2020 WEBRip] MVO [Jaskier] bober100 Скачать
2 | 0
Зарубежные сериалы [ 2.31 GB ] Тьма / Dark / Сезон: 3 / Серии: 1-2 из 8 [2020 WEBRip] [DVO] killermax2013 Скачать
1 | 0
Зарубежные сериалы [ 10.81 GB ] Тьма / Dark / Сезон: 3 / Серии: 1-4 из 8 [2020 WEBRip 1080p] MVO [NewStudio] +DVO [Кубик в Кубе] bober100 Скачать
2 | 0
Зарубежные сериалы [ 7.13 GB ] Тьма / Dark / Сезон: 3 / Серии: 1-8 из 8 [2020 WEB-DLRip] MVO [NewStudio] bober100 Скачать
3 | 0
Зарубежные сериалы [ 13.69 GB ] Тьма / Dark / Сезон: 3 / Серии: 1-8 из 8 [2020 WEB-DL 720p] MVO [NewStudio] bober100 Скачать
5 | 0

28-11-2019 20:33  

Отключить всю рекламу на сайте

    Дорогой пользователь! Огромная просьба, поблагодарите релизера, оцените раздачу и оставьте свои комментарий, если Вы скачали Тьма через торрент бесплатно! Внесите свою лепту в развитие PiratBit!
    Комментировать посты могут только пользователи прошедшие не сложную регистрацию
    Показать сообщения:    

    Тьма через торрент
    Скачать бесплатно Тьма
    Тьма скачать торрент
    Тьма смотреть онлайн
    Cкачать фильм Тьма бесплатно
    Тьма скачать торрент в хорошем качестве
    Тьма смотреть онлайн бесплатно в хорошем качестве


    Вы не можете начинать темы
    Вы не можете отвечать на сообщения
    Вы не можете редактировать свои сообщения
    Вы не можете удалять свои сообщения
    Вы не можете голосовать в опросах
    Вы не можете прикреплять файлы к сообщениям
    Вы можете скачивать файлы