Ссылка на приватное зеркало всего за 1$. Внимание количество ограничено!!!

iTunes

iTunes

iTunes

1

iTunes

iTunes

iTunes

iTunes

iTunes

30
pack

$ от Little Big

ВАЖНО

!!Акция!!

Alien_RageХит недели

RePack

Resident Evil 21

ИГРА 18+

pack

RePack

jed

!!Акция!!

Alien_Rage

RePack

fifa19

RePack

Assassins Creed: Odyssey

RePack

NEED FOR SPEED™ PAYBACK

4 сезон

9 сезон

Бесстыжие 9 сезон

Все сериалы

все сериалы на PB.wtf

RePack

FAR CRY 5
  

Тьма / Dark / Сезон: 3 / Серии: 1-8 из 8 (Баран бо Одар) [2020, триллер, фантастика, драма, криминал, детектив, WEB-DL 720p] MVO [NewStudio] pb.wtf

Тьма через торрент pb.wtf

Раздают: 4 [ 66 KB/s ]
Размер: 13.69 GB | Добавлен: 1 д. 14 ч. назад | Торрент скачан:13 раз
Скачать  

30-06-2020 02:30 Тьма Скачать торрент  

✘ Тьма | Dark ✘
«***»

Год выпуска: 2020
Страна: Германия, США
Студия: Netflix
Жанр: Триллер, драма, криминал, детектив, фантастика
Продолжительность: ~ 00:54:00
Перевод: Профессиональный (многоголосый) | NewStudio
Субтитры: Rus, Eng (SDH)

Режиссёр: Баран бо Одар

В ролях: Оливер Мазуччи, Каролина Эйхгорн, Йордис Трибель, Луис Хофманн, Майя Шёне, Штефан Кампвирт, Андреас Пичман, Дебора Кауфман, Татя Зайбт и др.

Описание: История четырёх семей, живущих спокойной и размеренной жизнью в маленьком немецком городке. Видимая идиллия рушится, когда бесследно исчезают двое детей и воскресают тёмные тайны прошлого.

rating

Качество: WEB-DL 720p
Формат: MKV

Видео: AVC, 1280 x 640 (2.000), 24.000 fps, ~2 353 kbps
Аудио №1: AC3, 6 ch, 48 kHz, 384 kbps | NewStudio
Аудио №2: AC3, 6 ch, 48 kHz, 640 kbps | Original
скриншот  скриншот  скриншот  скриншот  скриншот  

Общее
Уникальный идентификатор : 182739616516294690946070754462596964598 (0x897A5EB4E06604022A0014943225A0F6)
Полное имя : E:\_Сериалы\_Сериалы\Тьма\Dark.S03.WEBDL.720p.NewStudio\Dark.s03E01.WEBDL.720p.NS.RGzsRutracker.mkv
Формат : Matroska
Версия формата : Version 4
Размер файла : 1,45 Гбайт
Продолжительность : 1 ч. 1 м.
Общий поток : 3 380 Кбит/сек
Дата кодирования : UTC 2020-07-01 18:40:24
Программа кодирования : mkvmerge v46.0.0 ('No Deeper Escape') 64-bit
Библиотека кодирования : libebml v1.3.10 + libmatroska v1.5.2

Видео
Идентификатор : 1
Формат : AVC
Формат/Информация : Advanced Video Codec
Профиль формата : High@L4.1
Настройки формата : CABAC / 10 Ref Frames
Параметр CABAC формата : Да
Параметр RefFrames формата : 10 кадров
Идентификатор кодека : V_MPEG4/ISO/AVC
Продолжительность : 1 ч. 1 м.
Битрейт : 2 353 Кбит/сек
Ширина : 1 280 пикселей
Высота : 640 пикселей
Соотношение сторон : 2,000
Режим частоты кадров : Постоянный
Частота кадров : 24,000 кадра/сек
Цветовое пространство : YUV
Субдискретизация насыщенности : 4:2:0
Битовая глубина : 8 бит
Тип развёртки : Прогрессивная
Бит/(Пиксели*Кадры) : 0.120
Размер потока : 1,01 Гбайт (70%)
Библиотека кодирования : x264 core 157 r2969 d4099dd
Настройки программы : cabac=1 / ref=10 / deblock=1:-3:-3 / analyse=0x3:0x133 / me=umh / subme=10 / psy=1 / psy_rd=1.00:0.00 / mixed_ref=1 / me_range=48 / chroma_me=1 / trellis=2 / 8x8dct=1 / cqm=0 / deadzone=21,11 / fast_pskip=0 / chroma_qp_offset=-2 / threads=12 / lookahead_threads=4 / sliced_threads=0 / nr=0 / decimate=0 / interlaced=0 / bluray_compat=0 / constrained_intra=0 / bframes=9 / b_pyramid=0 / b_adapt=2 / b_bias=0 / direct=3 / weightb=1 / open_gop=0 / weightp=2 / keyint=250 / keyint_min=24 / scenecut=40 / intra_refresh=0 / rc_lookahead=60 / rc=crf / mbtree=0 / crf=17.0 / qcomp=0.60 / qpmin=10 / qpmax=51 / qpstep=4 / vbv_maxrate=62500 / vbv_bufsize=78125 / crf_max=0.0 / nal_hrd=none / filler=0 / ip_ratio=1.40 / pb_ratio=1.30 / aq=3:0.75
Язык : English
Default : Да
Forced : Нет

Аудио #1
Идентификатор : 2
Формат : AC-3
Формат/Информация : Audio Coding 3
Коммерческое название : Dolby Digital
Идентификатор кодека : A_AC3
Продолжительность : 1 ч. 1 м.
Вид битрейта : Постоянный
Битрейт : 384 Кбит/сек
Каналы : 6 каналов
Channel layout : L R C LFE Ls Rs
Частота : 48,0 КГц
Частота кадров : 31,250 кадров/сек (1536 SPF)
Метод сжатия : С потерями
Размер потока : 169 Мбайт (11%)
Заголовок : NewStudio
Язык : Russian
Service kind : Complete Main
Default : Да
Forced : Нет

Аудио #2
Идентификатор : 3
Формат : AC-3
Формат/Информация : Audio Coding 3
Коммерческое название : Dolby Digital
Идентификатор кодека : A_AC3
Продолжительность : 1 ч. 1 м.
Вид битрейта : Постоянный
Битрейт : 640 Кбит/сек
Каналы : 6 каналов
Channel layout : L R C LFE Ls Rs
Частота : 48,0 КГц
Частота кадров : 31,250 кадров/сек (1536 SPF)
Метод сжатия : С потерями
Размер потока : 281 Мбайт (19%)
Заголовок : Ger
Язык : German
Service kind : Complete Main
Default : Нет
Forced : Нет

Текст #1
Идентификатор : 4
Формат : UTF-8
Идентификатор кодека : S_TEXT/UTF8
Идентификатор кодека/Информация : UTF-8 Plain Text
Продолжительность : 57 м. 13 с.
Битрейт : 42 бит/сек
Count of elements : 455
Размер потока : 17,9 Кбайт (0%)
Заголовок : Rus
Язык : Russian
Default : Нет
Forced : Нет

Текст #2
Идентификатор : 5
Формат : UTF-8
Идентификатор кодека : S_TEXT/UTF8
Идентификатор кодека/Информация : UTF-8 Plain Text
Продолжительность : 57 м. 14 с.
Битрейт : 37 бит/сек
Count of elements : 594
Размер потока : 15,9 Кбайт (0%)
Заголовок : Eng SDH
Язык : English
Default : Нет
Forced : Нет

Когда раздача ведётся путём добавления новых серий, при каждом добавлении создётся новый торрент. Чтобы начать докачку новой серии, пользователям необходимо сделать следующее:
(1) остановить скачивание,
(2) удалить старый торрент у себя из клиента (старые серии удалять не надо),
(3) скачать новый торрент и запустить его у себя в клиенте вместо старого, при этом указать клиенту путь в старую папку, куда и должно происходить скачивание новых серий.
Ваш клиент при этом должен произвести хеширование (проверку) старой папки (если не производит сам - помогите ему сделать это), и будет докачивать только те серии, которых у вас ещё нет. Старые серии при этом не удаляются, а продолжают раздаваться!
Eсли вы уже удалили старые серии, то предотвратить повторную закачку старых серий можно, отжав галочку в соответсвующих местах при запуске нового торрента. По возможности, желательно не удалять старые серии как можно дольше, чтобы релизёр не столько продолжал раздавать старые серии, а смог сконцентрироваться на новых.

pb.wtf



Скачать Тьма через торрент https://i4.imageban.ru/out/2020/07/01/f309d890b1b0f9615774568d9c6767f5.png Скачать фильм Тьма через торрент бесплантно в хорошем качестве Описание: История четырёх семей, живущих спокойной и размеренной жизнью в маленьком немецком городке. Видимая идиллия рушится, когда ... 10 10 3
Торрент: Зарегистрирован [2020-07-05 11:57] · скачан: 13 раз
Статус: √ проверено
Размер: 13.69 GB
Как cкачать? Как скачать Тьма через торрент | qTorrent

% Раздел Тема Автор DL S | L
Зарубежные сериалы [ 21.73 GB ] Тьма / Dark / Сезон: 3 / Серии: 1-8 из 8 [2020 WEBRip 1080p] MVO [Jaskier] bober100 Скачать
2 | 0
Зарубежные сериалы [ 11.09 GB ] Тьма / Dark / Сезон: 3 / Серии: 1-8 из 8 [2020 WEBRip 720p] MVO [Jaskier] bober100 Скачать
1 | 0
Зарубежные сериалы [ 6.03 GB ] Тьма / Dark / Сезон: 3 / Серии: 1-8 из 8 [2020 WEBRip] MVO [Jaskier] bober100 Скачать
2 | 0
Зарубежные сериалы [ 2.31 GB ] Тьма / Dark / Сезон: 3 / Серии: 1-2 из 8 [2020 WEBRip] [DVO] killermax2013 Скачать
1 | 0
Зарубежные сериалы [ 10.81 GB ] Тьма / Dark / Сезон: 3 / Серии: 1-4 из 8 [2020 WEBRip 1080p] MVO [NewStudio] +DVO [Кубик в Кубе] bober100 Скачать
2 | 0
Зарубежные сериалы [ 7.13 GB ] Тьма / Dark / Сезон: 3 / Серии: 1-8 из 8 [2020 WEB-DLRip] MVO [NewStudio] bober100 Скачать
3 | 0
Зарубежные сериалы [ 22.63 GB ] Тьма / Dark / Сезон: 3 / Серии: 1-8 из 8 [2020 WEBRip 1080p] MVO [NewStudio] bober100 Скачать
5 | 8

28-11-2019 20:33  

Отключить всю рекламу на сайте

    Дорогой пользователь! Огромная просьба, поблагодарите релизера, оцените раздачу и оставьте свои комментарий, если Вы скачали Тьма через торрент бесплатно! Внесите свою лепту в развитие PiratBit!
    Комментировать посты могут только пользователи прошедшие не сложную регистрацию
    Показать сообщения:    

    Тьма через торрент
    Скачать бесплатно Тьма
    Тьма скачать торрент
    Тьма смотреть онлайн
    Cкачать фильм Тьма бесплатно
    Тьма скачать торрент в хорошем качестве
    Тьма смотреть онлайн бесплатно в хорошем качестве


    Вы не можете начинать темы
    Вы не можете отвечать на сообщения
    Вы не можете редактировать свои сообщения
    Вы не можете удалять свои сообщения
    Вы не можете голосовать в опросах
    Вы не можете прикреплять файлы к сообщениям
    Вы можете скачивать файлы