Ссылка на приватное зеркало всего за 1$. Внимание количество ограничено!!!

iTunes

iTunes

iTunes

1

iTunes

iTunes

iTunes

iTunes

iTunes

30
pack

$ от Little Big

ВАЖНО

!!Акция!!

Alien_RageХит недели

RePack

Resident Evil 21

ИГРА 18+

pack

RePack

jed

!!Акция!!

Alien_Rage

RePack

fifa19

RePack

Assassins Creed: Odyssey

RePack

NEED FOR SPEED™ PAYBACK

4 сезон

9 сезон

Бесстыжие 9 сезон

Все сериалы

все сериалы на PB.wtf

RePack

FAR CRY 5
  

Я исчезну во тьме / I'll Be Gone in the Dark / Сезон: 1 / Серии: 1- из 6 (Лиз Гарбус, Майлс Кэйн, Джош Кури) [2020, Криминал, WEB-DL 1080p] MVO [Lucky Production / Amedia] pb.wtf

Я исчезну во тьме через торрент pb.wtf

Размер: 3.68 GB | Добавлен: 6 д. назад | Торрент скачан:13 раз
Скачать  

30-06-2020 02:40 Я исчезну во тьме Скачать торрент  

Я исчезну во тьме | I'll Be Gone in the Dark
Год выпуска: 2020
Страна: США
Студия: HBO
Жанр: Криминал
Продолжительность: ~ 00:57:00 серия
Перевод: Профессиональный (многоголосый) | Lucky Production по заказу Amedia
Субтитры: Русские (Lucky Production) по заказу Amedia, английские

Режиссер: Лиз Гарбус, Майлс Кэйн, Джош Кури

rating

В ролях: Эми Райан, Пол Хэйнс, Пэттон Освальт, Билли Дженсен

Описание: Джозеф Деанджело с 1976 по 1986 годы убил по меньшей мере 10 человек и около 50 подверг сексуальному насилию. Режиссёр фильма годами пыталась восстановить справедливость и не дать запутанному делу сгинуть в архивах.

Качество: WEB-DL 1080p
Формат: MKV

Видео: MPEG-4 AVC, ~ 8000 Кбит/с, 1920x1080
Аудио#1: Русский (AC3, 6 ch, 384 Кбит/с)
Аудио#2: английский (E-AC3, 6 ch, 640 Кбит/с)
скриншот  скриншот  скриншот  скриншот  

Общее
Уникальный идентификатор : 219317522182130002797338287335141275720 (0xA4FF04B1455287D0B5A929170CAFF848)
Полное имя : D:\I'll.Be.Gone.in.the.Dark.S01.2020.WEB-DL.1080p.ExKinoRay\I'll.Be.Gone.in.the.Dark.S01.E01.2020.WEB-DL.1080p.ExKinoRay.mkv
Формат : Matroska
Версия формата : Version 2
Размер файла : 3,68 Гбайт
Продолжительность : 57 м. 45 с.
Общий поток : 9113 Кбит/сек
Дата кодирования : UTC 2020-06-29 22:59:39
Программа кодирования : mkvmerge v5.8.0 ('No Sleep / Pillow') built on Sep 2 2012 15:37:04
Библиотека кодирования : libebml v1.2.3 + libmatroska v1.3.0

Видео
Идентификатор : 1
Формат : AVC
Формат/Информация : Advanced Video Codec
Профиль формата : High@L4
Параметр CABAC формата : Да
Параметр RefFrames формата : 4 кадра
Идентификатор кодека : V_MPEG4/ISO/AVC
Продолжительность : 57 м. 45 с.
Вид битрейта : Постоянный
Битрейт : 7998 Кбит/сек
Номинальный битрейт : 10000 Кбит/сек
Ширина : 1920 пикселей
Высота : 1080 пикселей
Соотношение сторон : 16:9
Режим частоты кадров : Постоянный
Частота кадров : 23,976 (24000/1001) кадра/сек
Цветовое пространство : YUV
Субдискретизация насыщенности : 4:2:0
Битовая глубина : 8 бит
Тип развёртки : Прогрессивная
Бит/(Пиксели*Кадры) : 0.159
Размер потока : 3,19 Гбайт (87%)
Язык : English
Default : Да
Forced : Нет
Цветовой диапазон : Limited
Основные цвета : BT.709
Характеристики трансфера : BT.709
Коэффициенты матрицы : BT.709

Аудио #1
Идентификатор : 2
Формат : AC-3
Формат/Информация : Audio Coding 3
Расширение режима : CM (complete main)
Параметр Endianness формата : Big
Идентификатор кодека : A_AC3
Продолжительность : 57 м. 45 с.
Вид битрейта : Постоянный
Битрейт : 384 Кбит/сек
Каналы : 6 каналов
Расположение каналов : Front: L C R, Side: L R, LFE
Частота : 48,0 КГц
Частота кадров : 31,250 кадров/сек (1536 spf)
Метод сжатия : С потерями
Размер потока : 159 Мбайт (4%)
Язык : Russian
Default : Да
Forced : Нет

Аудио #2
Идентификатор : 3
Формат : E-AC-3
Формат/Информация : Audio Coding 3
Параметр Endianness формата : Big
Идентификатор кодека : A_EAC3
Продолжительность : 57 м. 45 с.
Вид битрейта : Постоянный
Битрейт : 640 Кбит/сек
Каналы : 6 каналов
Расположение каналов : Front: L C R, Side: L R, LFE
Частота : 48,0 КГц
Частота кадров : 187,500 кадров/сек (256 spf)
Метод сжатия : С потерями
Размер потока : 264 Мбайт (7%)
Язык : English
Default : Нет
Forced : Нет

Текст #1
Идентификатор : 4
Формат : UTF-8
Идентификатор кодека : S_TEXT/UTF8
Идентификатор кодека/Информация : UTF-8 Plain Text
Язык : Russian
Default : Нет
Forced : Нет

Текст #2
Идентификатор : 5
Формат : UTF-8
Идентификатор кодека : S_TEXT/UTF8
Идентификатор кодека/Информация : UTF-8 Plain Text
Язык : English
Default : Нет
Forced : Нет

Текст #3
Идентификатор : 6
Формат : UTF-8
Идентификатор кодека : S_TEXT/UTF8
Идентификатор кодека/Информация : UTF-8 Plain Text
Заголовок : SDH
Язык : English
Default : Нет
Forced : Нет

Когда раздача ведётся путём добавления новых серий, при каждом добавлении создётся новый торрент. Чтобы начать докачку новой серии, пользователям необходимо сделать следующее:
(1) остановить скачивание,
(2) удалить старый торрент у себя из клиента (старые серии удалять не надо),
(3) скачать новый торрент и запустить его у себя в клиенте вместо старого, при этом указать клиенту путь в старую папку, куда и должно происходить скачивание новых серий.
Ваш клиент при этом должен произвести хеширование (проверку) старой папки (если не производит сам - помогите ему сделать это), и будет докачивать только те серии, которых у вас ещё нет. Старые серии при этом не удаляются, а продолжают раздаваться!
Eсли вы уже удалили старые серии, то предотвратить повторную закачку старых серий можно, отжав галочку в соответсвующих местах при запуске нового торрента. По возможности, желательно не удалять старые серии как можно дольше, чтобы релизёр не столько продолжал раздавать старые серии, а смог сконцентрироваться на новых.

pb.wtf



Скачать Я исчезну во тьме через торрент https://i112.fastpic.ru/big/2020/0629/a1/6a25208123c4ddba7c1b9b0b972dcba1.jpg Скачать фильм Я исчезну во тьме через торрент бесплантно в хорошем качестве Описание: Джозеф Деанджело с 1976 по 1986 годы убил по меньшей мере 10 человек и около 50 подверг сексуальному насилию. Режиссёр фильма ... 10 10 3
Торрент: Зарегистрирован [2020-06-30 02:40] · скачан: 13 раз
Статус: √ проверено
Размер: 3.68 GB
Как cкачать? Как скачать Я исчезну во тьме через торрент | qTorrent

28-11-2019 20:33  

Отключить всю рекламу на сайте

    Дорогой пользователь! Огромная просьба, поблагодарите релизера, оцените раздачу и оставьте свои комментарий, если Вы скачали Я исчезну во тьме через торрент бесплатно! Внесите свою лепту в развитие PiratBit!
    Комментировать посты могут только пользователи прошедшие не сложную регистрацию
    Показать сообщения:    

    Я исчезну во тьме через торрент
    Скачать бесплатно Я исчезну во тьме
    Я исчезну во тьме скачать торрент
    Я исчезну во тьме смотреть онлайн
    Cкачать фильм Я исчезну во тьме бесплатно
    Я исчезну во тьме скачать торрент в хорошем качестве
    Я исчезну во тьме смотреть онлайн бесплатно в хорошем качестве


    Вы не можете начинать темы
    Вы не можете отвечать на сообщения
    Вы не можете редактировать свои сообщения
    Вы не можете удалять свои сообщения
    Вы не можете голосовать в опросах
    Вы не можете прикреплять файлы к сообщениям
    Вы можете скачивать файлы