2 сезон

iTunes

1 сезон

1

iTunes

iTunes

iTunes

1 сезон

RePack

30

ИГРА 18+

pack

ВАЖНО

!!Акция!!

Alien_RageХит недели

RePack

MK11
pack

Забери бонус

RePack

jed

!!Акция!!

Alien_Rage

RePack

fifa19

RePack

Assassins Creed: Odyssey

RePack

NEED FOR SPEED™ PAYBACK

4 сезон

9 сезон

Бесстыжие 9 сезон

Все сериалы

все сериалы на PB.wtf

RePack

FAR CRY 5
  

Мстители: Война бесконечности / Avengers: Infinity War (Энтони Руссо, Джо Руссо) [2018 г., Фантастика, фэнтези, боевик, приключения, WEB-DLRip 720p / 60 FPS, Дубляж] ( Open Matte ) от R.G. HD-Films pb.wtf

Мстители: Война бесконечности через торрент pb.wtf

Раздают: 3 [ 121 KB/s ]
Размер: 5.8 GB | Добавлен: 4 мес. назад | Торрент скачан:74 раза
Скачать  

30-06-2020 17:18 Мстители: Война бесконечности Скачать торрент  

Мстители: Война бесконечности / Avengers: Infinity War
Год выпуска: 2018
Страна: США
Жанр: Фантастика, фэнтези, боевик, приключения
Продолжительность: 02:23:28
Перевод: Дубляж
Субтитры: Russian

Режиссер: Энтони Руссо, Джо Руссо

Бюджет: $321 000 000
Премьера в мире: 23 апреля 2018

rating

В ролях: Роберт Дауни мл., Крис Хемсворт, Марк Руффало, Крис Эванс, Скарлетт Йоханссон, Дон Чидл, Бенедикт Камбербэтч, Том Холланд, Чэдвик Боузмэн, Зои Салдана, Карен Гиллан, Том Хиддлстон, Крис Пратт, Пол Беттани, Элизабет Олсен, Себастиан Стэн, Идрис Эльба, Дэйв Батиста, Гвинет Пэлтроу, Бенисио Дель Торо

Описание: Пока Мстители и их союзники продолжают защищать мир от различных опасностей, с которыми не смог бы справиться один супергерой, новая угроза возникает из космоса: Танос. Межгалактический тиран преследует цель собрать все шесть Камней Бесконечности — артефакты невероятной силы, с помощью которых можно менять реальность по своему желанию. Всё, с чем Мстители сталкивались ранее, вело к этому моменту — судьба Земли никогда ещё не была столь неопределённой.

Качество: WEB-DLRip 720p / 60 FPS
Формат: MKV
Видео кодек: H.264
Аудио кодек: AC3
Видео: x264, 1280 x 720 ( 16:9 ), 5397 kbps, 60,000 fps, ( 0.098 bpp)
Аудио#1: Русский, AC-3, 48.0 KHz, 6 ch, 384 Kbps
Релиз от:

скриншот   скриншот   скриншот   скриншот   скриншот   скриншот  Автор рипа: slaventi-69
x264 [info]: frame I:2592 Avg QP:15.20 size: 70782
x264 [info]: frame P:122158 Avg QP:16.49 size: 24342
x264 [info]: frame B:391728 Avg QP:18.88 size: 6766
x264 [info]: consecutive B-frames: 2.0% 2.9% 10.0% 22.3% 39.7% 23.1%


Общее
Уникальный идентификатор : 200994077618266212421650757092543499378 (0x97360D2039603C41BBD22429F6130C72)
Полное имя : F:\Avengers.Infinity.War.(2018).WEB-DLRip.720p.(60 Fps).(Open Matte).mkv
Формат : Matroska
Версия формата : Version 4
Размер файла : 5,80 Гбайт
Продолжительность : 2 ч. 23 м.
Общий поток : 5785 Кбит/сек
Название фильма : Мстители: Война бесконечности / Avengers: Infinity War (2018) WEB-DLRip 720p (60 Fps) | Open Matte
Дата кодирования : UTC 2020-06-28 19:26:43
Программа кодирования : mkvmerge v12.0.0 ('Trust / Lust') 64bit
Библиотека кодирования : libebml v1.3.4 + libmatroska v1.4.5

Видео
Идентификатор : 1
Формат : AVC
Формат/Информация : Advanced Video Codec
Профиль формата : High@L4.1
Настройки формата : CABAC / 9 Ref Frames
Параметр CABAC формата : Да
Параметр RefFrames формата : 9 кадров
Идентификатор кодека : V_MPEG4/ISO/AVC
Продолжительность : 2 ч. 23 м.
Битрейт : 5397 Кбит/сек
Ширина : 1280 пикселей
Высота : 720 пикселей
Соотношение сторон : 16:9
Режим частоты кадров : Постоянный
Частота кадров : 60,000 кадров/сек
Цветовое пространство : YUV
Субдискретизация насыщенности : 4:2:0
Битовая глубина : 8 бит
Тип развёртки : Прогрессивная
Бит/(Пиксели*Кадры) : 0.098
Размер потока : 5,41 Гбайт (93%)
Заголовок : slaventi-69 ( R.G. HD-Films | 60 fps )
Библиотека кодирования : x264 core 130 r2273 b3065e6
Настройки программы : cabac=1 / ref=9 / deblock=1:0:0 / analyse=0x3:0x133 / me=umh / subme=9 / psy=1 / psy_rd=1.00:0.00 / mixed_ref=1 / me_range=32 / chroma_me=1 / trellis=2 / 8x8dct=1 / cqm=0 / deadzone=21,11 / fast_pskip=0 / chroma_qp_offset=-2 / threads=10 / lookahead_threads=2 / sliced_threads=0 / nr=0 / decimate=1 / interlaced=0 / bluray_compat=0 / constrained_intra=0 / bframes=5 / b_pyramid=2 / b_adapt=2 / b_bias=0 / direct=1 / weightb=1 / open_gop=0 / weightp=2 / keyint=600 / keyint_min=23 / scenecut=40 / intra_refresh=0 / rc=crf / mbtree=0 / crf=16.8 / qcomp=0.60 / qpmin=0 / qpmax=69 / qpstep=4 / ip_ratio=1.40 / pb_ratio=1.30 / aq=1:1.00
Язык : English
Default : Да
Forced : Нет

Аудио
Идентификатор : 2
Формат : AC-3
Формат/Информация : Audio Coding 3
Коммерческое название : Dolby Digital
Идентификатор кодека : A_AC3
Продолжительность : 2 ч. 23 м.
Вид битрейта : Постоянный
Битрейт : 384 Кбит/сек
Каналы : 6 каналов
Channel layout : L R C LFE Ls Rs
Частота : 48,0 КГц
Частота кадров : 31,250 кадров/сек (1536 SPF)
Битовая глубина : 16 бит
Метод сжатия : С потерями
Размер потока : 394 Мбайт (7%)
Заголовок : Dub
Язык : Russian
ServiceKind/String : Complete Main
Default : Да
Forced : Нет

Текст
Идентификатор : 3
Формат : UTF-8
Идентификатор кодека : S_TEXT/UTF8
Идентификатор кодека/Информация : UTF-8 Plain Text
Продолжительность : 2 ч. 22 м.
Битрейт : 66 бит/сек
ElementCount : 1597
Размер потока : 70,0 Кбайт (0%)
Язык : Russian
Default : Нет
Forced : Нет

Просьба к переливающим на другие сайты, в оформлении указывайте пожалуйста авторство группы R.G. HD-Films pb.wtf



Скачать Мстители: Война бесконечности через торрент https://img16.lostpic.net/2020/01/05/defe6b7ee682f29949a3fbd584665b72.jpg Скачать фильм Мстители: Война бесконечности через торрент бесплантно в хорошем качестве Описание: Пока Мстители и их союзники продолжают защищать мир от различных опасностей, с которыми не смог бы справиться один супергерой, ... 10 10 11
Info! Золотая раздача, скачанное не засчитывается.
Торрент: Зарегистрирован [2020-06-30 17:18] · скачан: 74 раз
Статус: √ проверено
Размер: 5.8 GB
Как cкачать? Как скачать Мстители: Война бесконечности через торрент | qTorrent

28-11-2019 20:33  

Отключить всю рекламу на сайте

01-07-2020 17:32 Мстители: Война бесконечности Скачать торрент  

Спасибо за Золото :
Раздача стала золотой благодаря: михакруг(5000)
pb.wtf



    Дорогой пользователь! Огромная просьба, поблагодарите релизера, оцените раздачу и оставьте свои комментарий, если Вы скачали Мстители: Война бесконечности через торрент бесплатно! Внесите свою лепту в развитие PiratBit!
    Комментировать посты могут только пользователи прошедшие не сложную регистрацию
    Показать сообщения:    

    Мстители: Война бесконечности через торрент
    Скачать бесплатно Мстители: Война бесконечности
    Мстители: Война бесконечности скачать торрент
    Мстители: Война бесконечности смотреть онлайн
    Cкачать фильм Мстители: Война бесконечности бесплатно
    Мстители: Война бесконечности скачать торрент в хорошем качестве
    Мстители: Война бесконечности смотреть онлайн бесплатно в хорошем качестве


    Вы не можете начинать темы
    Вы не можете отвечать на сообщения
    Вы не можете редактировать свои сообщения
    Вы не можете удалять свои сообщения
    Вы не можете голосовать в опросах
    Вы не можете прикреплять файлы к сообщениям
    Вы можете скачивать файлы