Ссылка на приватное зеркало нашего сайта всего за 1$. Внимание количество ограничено!!!

2 сезон

iTunes

1 сезон

1

2 сезон

2 сезон

iTunes

1 сезон

RePack

30

Ultimate

ВАЖНО

ИГРА 18+

pack

RePack

MK11
pack

Забери бонус

RePack

jed

!!Акция!!

Alien_Rage

RePack

fifa19

RePack

Assassins Creed: Odyssey

RePack

NEED FOR SPEED™ PAYBACK

4 сезон

9 сезон

Бесстыжие 9 сезон

Все сериалы

все сериалы на PB.wtf

RePack

FAR CRY 5
  

Вместе с Дидлами / Встречайте Дидлов / Meet the Deedles (Стив Бойум / Steve Boyum) [1998, комедия, WEB-DL 720p] [DVO] (R5) + [MVO] (СТС) + [AVO] (Санаев) pb.wtf

Вместе с Дидлами через торрент pb.wtf

Размер: 3.55 GB | Добавлен: 4 мес. 27 д. назад | Торрент скачан:30 раз
Скачать  

30-06-2020 19:47 Вместе с Дидлами Скачать торрент  

Вместе с Дидлами / Встречайте Дидлов / Meet the Deedles

Год выпуска: 1998
Страна: США
Студия: DIC Entertainment, Peak Productions, Walt Disney Pictures
Жанр: Комедия
Продолжительность: 01:34:02
Перевод 1: Профессиональный (двухголосый закадровый) R5 WestVideo
Перевод 2: Авторский (одноголосый закадровый) Павел Санаев
Перевод 3: Профессиональный (многоголосый закадровый) "Фильм-Экспорт" по заказу "СТС" с VHS
Субтитры: русские

Режиссер: Стив Бойум / Steve Boyum

В ролях: Стив Ван Уормер, Пол Уокер, А.Дж. Ленджер, Джон Эштон, Деннис Хоппер, Эрик Браден, Ричард Лайнбэк, Роберт Инглунд, М. К. Гейни, Ана Гастейер, Меган Кэвэна, Майкл Рууд, Хэтти Уинстон, Ларри Риппенкрюгер, Боб Эрик Харт, Донре Сэмпсон, Дон Нахаку, Билл Монди, Алиса Харрис, Маив Миллард, Браден Пауэлл, Лен Рубел, Мелисса Паке-Тэннер, Доун Блюфорд, Дуан Стефенс

Описание: День 18-летия стал переломным для близнецов Дидлов — их исключили из школы. В наказание богатый папочка отправляет своих чудаков Стью и Фила на перевоспитание в «Лагерь сломленного духа». Но этому не суждено было сбыться: неистребимое раздолбайство заносит братьев к ренджерам, где, встретив достойного противника — Фрэнка Слейтера, они продолжают сеять панику и нести разрушения, но теперь уже на чужой земле!

Автор релиза -

rating

Качество видео: WEB-DL 720p
Формат видео: MKV

Видео: MPEG-4, 1280x718 (16:9), 23.976 fps, 4051 kbps, 0.184 bit/pixel
Аудио 1: Русский AC3, 48000 Гц, 6ch, 384 kbps - DVO
Аудио 2: Русский AC3, 48000 Гц, 6ch, 384 kbps - AVO
Аудио 3: Русский AC3, 48000 Гц, 1ch, 192 kbps - MVO
Аудио 4: Английский AC3, 48000 Гц, 6ch, 384 kbps
Формат субтитров: softsub (SRT)
Общее
Уникальный идентификатор : 339941518915178094937850379956336480410 (0xFFBE5AE5568FA913BFD53322AB50509A)
Полное имя : D:\!Модерация\ylnian\Meet the Deedles - неоформлено\Meet.the.Deedles.1998.WEBDL.720p-ylnian.mkv
Формат : Matroska
Версия формата : Version 4 / Version 2
Размер файла : 3,55 Гбайт
Продолжительность : 1 ч. 34 м.
Общий поток : 5398 Кбит/сек
Название фильма : Meet.the.Deedles.1998.WEBDL.720p-ylnian
Дата кодирования : UTC 2018-03-04 14:35:34
Программа кодирования : mkvmerge v20.0.0 ('I Am The Sun') 64-bit
Библиотека кодирования : libebml v1.3.5 + libmatroska v1.4.8

Видео
Идентификатор : 1
Формат : AVC
Формат/Информация : Advanced Video Codec
Профиль формата : High@L3.1
Настройки формата : 2 Ref Frames
Параметр CABAC формата : Нет
Параметр RefFrames формата : 2 кадра
Параметр GOP формата : N=1
Идентификатор кодека : V_MPEG4/ISO/AVC
Продолжительность : 1 ч. 34 м.
Битрейт : 3946 Кбит/сек
Ширина : 1280 пикселей
Высота : 718 пикселей
Соотношение сторон : 16:9
Режим частоты кадров : Постоянный
Частота кадров : 23,976 кадра/сек
Цветовое пространство : YUV
Субдискретизация насыщенности : 4:2:0
Битовая глубина : 8 бит
Тип развёртки : Прогрессивная
Бит/(Пиксели*Кадры) : 0.179
Размер потока : 2,59 Гбайт (73%)
Заголовок : Meet.the.Deedles.1998.720p.WEB-DL.DD5.1.h.264-fiend
Язык : English
Default : Да
Forced : Нет
Цветовой диапазон : Limited
Основные цвета : BT.709
Характеристики трансфера : BT.709
Коэффициенты матрицы : BT.709

Аудио #1
Идентификатор : 2
Формат : AC-3
Формат/Информация : Audio Coding 3
Идентификатор кодека : A_AC3
Продолжительность : 1 ч. 34 м.
Вид битрейта : Постоянный
Битрейт : 384 Кбит/сек
Каналы : 6 каналов
Расположение каналов : Front: L C R, Side: L R, LFE
Частота : 48,0 КГц
Частота кадров : 31,250 кадров/сек (1536 SPF)
Битовая глубина : 16 бит
Метод сжатия : С потерями
Размер потока : 258 Мбайт (7%)
Заголовок : DVO (WestVideo) (AC3 5.1 384 kbps)
Язык : Russian
ServiceKind/String : Complete Main
Default : Да
Forced : Да

Аудио #2
Идентификатор : 3
Формат : AC-3
Формат/Информация : Audio Coding 3
Идентификатор кодека : A_AC3
Продолжительность : 1 ч. 34 м.
Вид битрейта : Постоянный
Битрейт : 384 Кбит/сек
Каналы : 6 каналов
Расположение каналов : Front: L C R, Side: L R, LFE
Частота : 48,0 КГц
Частота кадров : 31,250 кадров/сек (1536 SPF)
Битовая глубина : 16 бит
Метод сжатия : С потерями
Размер потока : 258 Мбайт (7%)
Заголовок : AVO (Санаев) (AC3 5.1 384 kbps)
Язык : Russian
ServiceKind/String : Complete Main
Default : Нет
Forced : Нет

Аудио #3
Идентификатор : 4
Формат : AC-3
Формат/Информация : Audio Coding 3
Идентификатор кодека : A_AC3
Продолжительность : 1 ч. 34 м.
Вид битрейта : Постоянный
Битрейт : 192 Кбит/сек
Каналы : 1 канал
Расположение каналов : Front: C
Частота : 48,0 КГц
Частота кадров : 31,250 кадров/сек (1536 SPF)
Битовая глубина : 16 бит
Метод сжатия : С потерями
Размер потока : 129 Мбайт (4%)
Заголовок : MVO (СТС) (AC3 2.0 192 kbps)
Язык : Russian
ServiceKind/String : Complete Main
Default : Нет
Forced : Нет

Аудио #4
Идентификатор : 5
Формат : AC-3
Формат/Информация : Audio Coding 3
Идентификатор кодека : A_AC3
Продолжительность : 1 ч. 34 м.
Вид битрейта : Постоянный
Битрейт : 384 Кбит/сек
Каналы : 6 каналов
Расположение каналов : Front: L C R, Side: L R, LFE
Частота : 48,0 КГц
Частота кадров : 31,250 кадров/сек (1536 SPF)
Битовая глубина : 16 бит
Метод сжатия : С потерями
Размер потока : 258 Мбайт (7%)
Заголовок : AC3 5.1 384 kbps
Язык : English
ServiceKind/String : Complete Main
Default : Нет
Forced : Нет

Текст
Идентификатор : 6
Формат : UTF-8
Идентификатор кодека : S_TEXT/UTF8
Идентификатор кодека/Информация : UTF-8 Plain Text
Язык : Russian
Default : Нет
Forced : Нет

Меню
00:00:00.000 : en:1
00:06:25.000 : en:2
00:12:15.000 : en:3
00:18:09.000 : en:4
00:23:42.000 : en:5
00:28:08.000 : en:6
00:34:38.000 : en:7
00:39:48.000 : en:8
00:46:09.000 : en:9
00:51:54.000 : en:10
00:57:25.000 : en:11
01:04:12.000 : en:12
01:09:09.000 : en:13
01:15:03.000 : en:14
01:22:02.000 : en:15
01:30:16.000 : en:16
скриншот  скриншот  скриншот  
pb.wtf



Скачать Вместе с Дидлами через торрент http://i98.fastpic.ru/big/2017/1201/d5/81ab7707ccd6d023763c20f07fc264d5.jpg Скачать фильм Вместе с Дидлами через торрент бесплантно в хорошем качестве Описание: День 18-летия стал переломным для близнецов Дидлов — их исключили из школы. В наказание богатый папочка отправляет своих чудаков ... 7 10 3
Торрент: Зарегистрирован [2020-06-30 19:47] · скачан: 30 раз
Статус: √ проверено
Размер: 3.55 GB
Как cкачать? Как скачать Вместе с Дидлами через торрент | qTorrent

% Раздел Тема Автор DL S | L
Фильмы до 2000 г. [ 1.96 GB ] Вместе с Дидлами / Встречайте Дидлов / Meet the Deedles [1998 WEB-DLRip] [DVO] + [MVO] + [AVO] killermax2013 Скачать
1 | 0

28-11-2019 20:33  

Отключить всю рекламу на сайте

01-07-2020 04:28 Вместе с Дидлами Скачать торрент  

я один прочитал название "Вместе с Дилдами"? pb.wtf



01-07-2020 06:36 Вместе с Дидлами Скачать торрент  

edapush писал(а):

я один прочитал название "Вместе с Дилдами"?

...нет...не один...pb.wtf



02-07-2020 10:28 Вместе с Дидлами Скачать торрент  

edapush писал(а):

я один прочитал название "Вместе с Дилдами"?

я думал я один такой pb.wtf



03-07-2020 15:06 Вместе с Дидлами Скачать торрент  

у кого какая фантизия)))pb.wtf



    Дорогой пользователь! Огромная просьба, поблагодарите релизера, оцените раздачу и оставьте свои комментарий, если Вы скачали Вместе с Дидлами через торрент бесплатно! Внесите свою лепту в развитие PiratBit!
    Комментировать посты могут только пользователи прошедшие не сложную регистрацию
    Показать сообщения:    

    Вместе с Дидлами через торрент
    Скачать бесплатно Вместе с Дидлами
    Вместе с Дидлами скачать торрент
    Вместе с Дидлами смотреть онлайн
    Cкачать фильм Вместе с Дидлами бесплатно
    Вместе с Дидлами скачать торрент в хорошем качестве
    Вместе с Дидлами смотреть онлайн бесплатно в хорошем качестве


    Вы не можете начинать темы
    Вы не можете отвечать на сообщения
    Вы не можете редактировать свои сообщения
    Вы не можете удалять свои сообщения
    Вы не можете голосовать в опросах
    Вы не можете прикреплять файлы к сообщениям
    Вы можете скачивать файлы