Ссылка на приватное зеркало всего за 1$. Внимание количество ограничено!!!

iTunes

iTunes

iTunes

1

iTunes

iTunes

iTunes

iTunes

iTunes

30
pack

$ от Little Big

ВАЖНО

!!Акция!!

Alien_RageХит недели

RePack

Resident Evil 21

ИГРА 18+

pack

RePack

jed

!!Акция!!

Alien_Rage

RePack

fifa19

RePack

Assassins Creed: Odyssey

RePack

NEED FOR SPEED™ PAYBACK

4 сезон

9 сезон

Бесстыжие 9 сезон

Все сериалы

все сериалы на PB.wtf

RePack

FAR CRY 5
  

Голяк / Без гроша / Без денег / Brassic / Сезон: 2 / Серии: 1-6 из 6 (Джон Райт, Дэниэл О’Хара, Сауль Метцштайн) [2020, Комедия, WEB-DLRip] [DVO] (Кубик в кубе) pb.wtf

Голяк через торрент pb.wtf

Раздают: 4 [ 55 KB/s ] Качают: 1 [ 0 KB/s ]
Размер: 3.68 GB | Добавлен: 12 д. назад | Торрент скачан:22 раза
Скачать  

01-07-2020 06:20 Голяк Скачать торрент  

Голяк | Без гроша | Без денег | Brassic
Год выпуска: 2020
Страна: Великобритания
Жанр: Комедия
Продолжительность: ~ 00:42:00
Перевод: Профессиональный (двухголосый закадровый) | Кубик в кубе
Режиссёр: Джон Райт, Дэниэл О’Хара, Сауль Метцштайн
В ролях: Джозеф Гилган, Дэмиен Молони, Мишель Кигэн, Том Хэнсон, Аарон Хеффернан, Парт Такерар, Райан Сэмпсон, Доминик Уэст, Стив Эветс
Описание: Винни и Дилан выросли вместе и практически неразлучны. Когда подруга Дилана, в поисках лучшей жизни, хочет переехать, Дилан должен принять самое трудное решение в своей жизни.

Качество: WEB-DLRip
Формат: AVI
Видео: XviD, 720x400 (16:9), 25,000 кадров/сек, 1600 Кбит/сек
Аудио Rus: AC3, 48,0 kHz, 2 ch, 192 Кбит/сек
Аудио Eng: AC3, 48,0 kHz, 2 ch, 192 Кбит/сек
Субтитры: Русские (MENINSUB), английские
Реклама: Отсутствует
Общее
Полное имя : D:\Brassic (Season 1) WEB-DLRip\Brassic (Season 2) WEB-DLRip\Brassic.S02E01.WEB-DLRip.RGzsRutracker.[Wentworth_Miller].avi
Формат : AVI
Формат/Информация : Audio Video Interleave
Размер файла : 627 Мбайт
Продолжительность : 43 м. 54 с.
Общий поток : 1 998 Кбит/сек
Программа кодирования : VirtualDubMod 1.5.10.3 | www.virtualdub-fr.org || (build 2550/release)
Библиотека кодирования : VirtualDubMod build 2550/release

Видео
Идентификатор : 0
Формат : MPEG-4 Visual
Профиль формата : Advanced Simple@L5
Настройки формата : BVOP1
Параметр BVOP формата : 1
Параметр QPel формата : Нет
Параметр GMC формата : Без точки перехода
Параметр матрицы формата : Default (MPEG)
Идентификатор кодека : XVID
Идентификатор кодека/Подсказка : XviD
Продолжительность : 43 м. 54 с.
Битрейт : 1 600 Кбит/сек
Ширина : 720 пикселей
Высота : 400 пикселей
Соотношение сторон : 16:9
Частота кадров : 25,000 кадров/сек
Цветовое пространство : YUV
Субдискретизация насыщенности : 4:2:0
Битовая глубина : 8 бит
Тип развёртки : Прогрессивная
Метод сжатия : С потерями
Бит/(Пиксели*Кадры) : 0.222
Размер потока : 502 Мбайт (80%)
Библиотека кодирования : XviD 67

Аудио #1
Идентификатор : 1
Формат : AC-3
Формат/Информация : Audio Coding 3
Коммерческое название : Dolby Digital
Идентификатор кодека : 2000
Продолжительность : 43 м. 54 с.
Вид битрейта : Постоянный
Битрейт : 192 Кбит/сек
Каналы : 2 канала
Channel layout : L R
Частота : 48,0 КГц
Частота кадров : 31,250 кадров/сек (1536 SPF)
Метод сжатия : С потерями
Размер потока : 60,3 Мбайт (10%)
Выравнивание : Разделение по промежуткам
Продолжительность промежутка : 40 мс. (1,00 видеокадр)
Время предзагрузки промежутка : 500 мс.
Service kind : Complete Main

Аудио #2
Идентификатор : 2
Формат : AC-3
Формат/Информация : Audio Coding 3
Коммерческое название : Dolby Digital
Идентификатор кодека : 2000
Продолжительность : 43 м. 54 с.
Вид битрейта : Постоянный
Битрейт : 192 Кбит/сек
Каналы : 2 канала
Channel layout : L R
Частота : 48,0 КГц
Частота кадров : 31,250 кадров/сек (1536 SPF)
Метод сжатия : С потерями
Размер потока : 60,3 Мбайт (10%)
Выравнивание : Разделение по промежуткам
Продолжительность промежутка : 40 мс. (1,00 видеокадр)
Время предзагрузки промежутка : 500 мс.
Service kind : Complete Main

скриншот  скриншот  скриншот  

pb.wtf



Скачать Голяк через торрент https://b.radikal.ru/b13/2006/ef/e2e44d025f92.png Скачать фильм Голяк через торрент бесплантно в хорошем качестве Описание: Винни и Дилан выросли вместе и практически неразлучны. Когда подруга Дилана, в поисках лучшей жизни, хочет переехать, Дилан ... 10 10 1
Торрент: Зарегистрирован [2020-07-01 06:20] · скачан: 22 раз
Статус: √ проверено
Размер: 3.68 GB
Как cкачать? Как скачать Голяк через торрент | qTorrent

% Раздел Тема Автор DL S | L
Зарубежные сериалы [ 9.75 GB ] Голяк / Без гроша / Без денег / Brassic / Сезон: 2 / Серии: 1-6 из 6 [2020 WEB-DL 1080p] DVO [Кубик в Кубе] bober100 Скачать
12 | 0

28-11-2019 20:33  

Отключить всю рекламу на сайте

    Дорогой пользователь! Огромная просьба, поблагодарите релизера, оцените раздачу и оставьте свои комментарий, если Вы скачали Голяк через торрент бесплатно! Внесите свою лепту в развитие PiratBit!
    Комментировать посты могут только пользователи прошедшие не сложную регистрацию
    Показать сообщения:    

    Голяк через торрент
    Скачать бесплатно Голяк
    Голяк скачать торрент
    Голяк смотреть онлайн
    Cкачать фильм Голяк бесплатно
    Голяк скачать торрент в хорошем качестве
    Голяк смотреть онлайн бесплатно в хорошем качестве


    Вы не можете начинать темы
    Вы не можете отвечать на сообщения
    Вы не можете редактировать свои сообщения
    Вы не можете удалять свои сообщения
    Вы не можете голосовать в опросах
    Вы не можете прикреплять файлы к сообщениям
    Вы можете скачивать файлы