2 сезон

iTunes

MVO

1

2 сезон

iTunes

iTunes

1 сезон

RePack

30

Новинка

ВАЖНО

ИГРА 18+

pack

RePack

MK11
pack

Легкие деньги

RePack

jed

RePack

fifa19

RePack

RDR2

RePack

NEED FOR SPEED™ PAYBACK

4 сезон

9 сезон

Бесстыжие 9 сезон

Все сериалы

все сериалы на PB.wtf

RePack

FAR CRY 5

Anonymous, доброй ночи, мы не успеваем собрать деньги на оплату серверов за декабрь и январь, помогите нам пожалуйста в это трудное время. В качестве благодарности мы отключим Вам всю рекламу на сайте (укажите свой ник в строку Ваше имя)!

×
  
Magnet ссылка

Сломанная стрела / Broken Arrow (Джон Ву) [1996 г., боевик, триллер, приключения, WEB-DLRip 720p / 60 FPS, Дубляж] ( Open Matte ) от R.G. HD-Films pb.wtf

Сломанная стрела через торрент pb.wtf

Размер: 4.46 GB | Добавлен: 6 мес. назад | Торрент скачан:57 раз
Скачать  

01-07-2020 17:27 Сломанная стрела Скачать торрент  

Сломанная стрела / Broken Arrow
Год выпуска: 1996
Страна: США
Жанр: боевик, триллер, приключения
Продолжительность: 01:48:21
Перевод: Дубляж
Субтитры: Russian, English

Режиссер: Джон Ву

Бюджет: $65 000 000
Премьера в мире: 5 февраля 1996

rating

В ролях: Джон Траволта, Кристиан Слэйтер, Саманта Мэтис, Делрой Линдо, Боб Гантон, Фрэнк Уэйли, Хоуи Лонг

Описание: История двух пилотов-асов американских ВВС. Им поручается выполнить секретное задание на самолете-невидимке с двумя ядерными боеголовками на борту. Дикенс, неудачник по жизни, постоянно пропускающий повышения по службе, задумывает похитить боеголовки, с тем чтобы шантажировать правительство США. Но его напарник Хэйл - честный парень и не позволит никому так просто взять и украсть собственность своей родной страны. Между ними разгорается самая настоящая война, в которой могут погибнуть не только они, но и несколько миллионов мирных жителей, живущих в округе, если хотя бы одна ядерная боеголовка взорвется.

Качество: WEB-DLRip 720p / 60 FPS
Формат: MKV
Видео кодек: H.264
Аудио кодек: AC3
Видео: x264, 1280 x 720 ( 16:9 ), 5509 kbps, 60,000 fps, ( 0.100 bpp)
Аудио#1: Русский, AC-3, 48.0 KHz, 6 ch, 384 Kbps MVO R5
Релиз от:

скриншот   скриншот   скриншот   скриншот   скриншот   скриншот  Автор рипа: slaventi-69
x264 [info]: frame I:1916 Avg QP:17.72 size: 86136
x264 [info]: frame P:92159 Avg QP:18.41 size: 24658
x264 [info]: frame B:296138 Avg QP:21.25 size: 6891
x264 [info]: consecutive B-frames: 2.6% 2.0% 7.9% 15.7% 60.1% 11.7%


Общее
Уникальный идентификатор : 249318240826447165862401077967665069523 (0xBB90F25257E7D6E792668BC82CC17DD3)
Полное имя : F:\Broken.Arrow.(1996).WEB-DLRip.720p.(60 Fps).(Open Matte).mkv
Формат : Matroska
Версия формата : Version 4
Размер файла : 4,46 Гбайт
Продолжительность : 1 ч. 48 м.
Общий поток : 5897 Кбит/сек
Название фильма : Сломанная стрела / Broken Arrow (1996) WEB-DLRip 720p (60 Fps) | Open Matte
Дата кодирования : UTC 2020-06-30 17:43:28
Программа кодирования : mkvmerge v12.0.0 ('Trust / Lust') 64bit
Библиотека кодирования : libebml v1.3.4 + libmatroska v1.4.5

Видео
Идентификатор : 1
Формат : AVC
Формат/Информация : Advanced Video Codec
Профиль формата : High@L4.1
Настройки формата : CABAC / 8 Ref Frames
Параметр CABAC формата : Да
Параметр RefFrames формата : 8 кадров
Идентификатор кодека : V_MPEG4/ISO/AVC
Продолжительность : 1 ч. 48 м.
Битрейт : 5509 Кбит/сек
Ширина : 1280 пикселей
Высота : 720 пикселей
Соотношение сторон : 16:9
Режим частоты кадров : Постоянный
Частота кадров : 60,000 кадров/сек
Цветовое пространство : YUV
Субдискретизация насыщенности : 4:2:0
Битовая глубина : 8 бит
Тип развёртки : Прогрессивная
Бит/(Пиксели*Кадры) : 0.100
Размер потока : 4,17 Гбайт (93%)
Заголовок : slaventi-69 ( R.G. HD-Films | 60 fps )
Библиотека кодирования : x264 core 130 r2273 b3065e6
Настройки программы : cabac=1 / ref=8 / deblock=1:0:0 / analyse=0x3:0x113 / me=umh / subme=9 / psy=1 / psy_rd=1.00:0.00 / mixed_ref=1 / me_range=28 / chroma_me=1 / trellis=2 / 8x8dct=1 / cqm=0 / deadzone=21,11 / fast_pskip=0 / chroma_qp_offset=-2 / threads=4 / lookahead_threads=2 / sliced_threads=0 / nr=0 / decimate=1 / interlaced=0 / bluray_compat=0 / constrained_intra=0 / bframes=5 / b_pyramid=2 / b_adapt=2 / b_bias=0 / direct=3 / weightb=1 / open_gop=0 / weightp=2 / keyint=600 / keyint_min=23 / scenecut=40 / intra_refresh=0 / rc=crf / mbtree=0 / crf=18.0 / qcomp=0.60 / qpmin=0 / qpmax=69 / qpstep=4 / ip_ratio=1.40 / pb_ratio=1.30 / aq=1:1.00
Язык : English
Default : Да
Forced : Нет

Аудио
Идентификатор : 2
Формат : AC-3
Формат/Информация : Audio Coding 3
Коммерческое название : Dolby Digital
Идентификатор кодека : A_AC3
Продолжительность : 1 ч. 48 м.
Вид битрейта : Постоянный
Битрейт : 384 Кбит/сек
Каналы : 6 каналов
Channel layout : L R C LFE Ls Rs
Частота : 48,0 КГц
Частота кадров : 31,250 кадров/сек (1536 SPF)
Битовая глубина : 16 бит
Метод сжатия : С потерями
Размер потока : 298 Мбайт (7%)
Заголовок : MVO R5
Язык : Russian
ServiceKind/String : Complete Main
Default : Да
Forced : Нет

Текст #1
Идентификатор : 3
Формат : UTF-8
Идентификатор кодека : S_TEXT/UTF8
Идентификатор кодека/Информация : UTF-8 Plain Text
Продолжительность : 1 ч. 40 м.
Битрейт : 76 бит/сек
ElementCount : 981
Размер потока : 56,5 Кбайт (0%)
Язык : Russian
Default : Нет
Forced : Нет

Текст #2
Идентификатор : 4
Формат : UTF-8
Идентификатор кодека : S_TEXT/UTF8
Идентификатор кодека/Информация : UTF-8 Plain Text
Продолжительность : 1 ч. 41 м.
Битрейт : 50 бит/сек
ElementCount : 1043
Размер потока : 37,4 Кбайт (0%)
Язык : English
Default : Нет
Forced : Нет

Просьба к переливающим на другие сайты, в оформлении указывайте пожалуйста авторство группы R.G. HD-Films pb.wtf



Скачать Сломанная стрела через торрент https://i4.imageban.ru/out/2019/07/29/518ece92e4a3269de8d32c44eeb0b111.png Скачать фильм Сломанная стрела через торрент бесплантно в хорошем качестве Описание: История двух пилотов-асов американских ВВС. Им поручается выполнить секретное задание на самолете-невидимке с двумя ядерными ... 10 10 8
Торрент: Зарегистрирован [2020-07-01 17:27] · скачан: 57 раз
Статус: √ проверено
Размер: 4.46 GB
Как cкачать? Как скачать Сломанная стрела через торрент | UTorrent

28-11-2019 20:33  

Отключить всю рекламу на сайте

01-07-2020 21:44 Сломанная стрела Скачать торрент  

Спасибо Вам большое, уважаемый, за очередной эталон качественного боевика от признанного мастера жанра, в исполнении прекрасных актёров!!!! Open matte это что-то!!! Благодарю за релиз и спасибо что не забываете радовать нас старым добрым ACTION!!!pb.wtf



    Дорогой пользователь! Огромная просьба, поблагодарите релизера, оцените раздачу и оставьте свои комментарий, если Вы скачали Сломанная стрела через торрент бесплатно! Внесите свою лепту в развитие PiratBit!
    Комментировать посты могут только пользователи прошедшие не сложную регистрацию
    Показать сообщения:    

    Сломанная стрела через торрент
    Скачать бесплатно Сломанная стрела
    Сломанная стрела скачать торрент
    Сломанная стрела смотреть онлайн
    Cкачать фильм Сломанная стрела бесплатно
    Сломанная стрела скачать торрент в хорошем качестве
    Сломанная стрела смотреть онлайн бесплатно в хорошем качестве


    Вы не можете начинать темы
    Вы не можете отвечать на сообщения
    Вы не можете редактировать свои сообщения
    Вы не можете удалять свои сообщения
    Вы не можете голосовать в опросах
    Вы не можете прикреплять файлы к сообщениям
    Вы можете скачивать файлы