Ссылка на приватное зеркало нашего сайта всего за 1$. Внимание количество ограничено!!!

2 сезон

iTunes

1 сезон

1

2 сезон

2 сезон

iTunes

1 сезон

RePack

30

Новинка

ВАЖНО

ИГРА 18+

pack

RePack

MK11
pack

Забери бонус

RePack

jed

!!Акция!!

Alien_Rage

RePack

fifa19

RePack

Assassins Creed: Odyssey

RePack

NEED FOR SPEED™ PAYBACK

4 сезон

9 сезон

Бесстыжие 9 сезон

Все сериалы

все сериалы на PB.wtf

RePack

FAR CRY 5
  

Легенда о призрачном кинжале / Benjamin Falck and the Ghost Dagger (Мартин Софидаль) [2019, Приключения, WEB-DL 720p] DUB [iTunes] pb.wtf

Легенда о призрачном кинжале через торрент pb.wtf

Раздают: 2 [ 0 KB/s ]
Размер: 2.26 GB | Добавлен: 4 мес. 27 д. назад | Торрент скачан:128 раз
Скачать  

02-07-2020 05:10 Легенда о призрачном кинжале Скачать торрент  

Легенда о призрачном кинжале | Benjamin Falck and the Ghost Dagger
Год выпуска: 2019
Страна: Норвегия
Студия: Creative Lads
Жанр: Приключения
Продолжительность: 01:34:41
Перевод: Дублированный | iTunes
Субтитры: отсутствуют

Режиссер: Мартин Софидаль

rating

В ролях: Фредрик Скогсруд, Кэролайн Глоумнс, Тронд Фауса Аурвааг, Патрик Финци, Джон Смит Кабаси, Хамид Карими, Хенрик Плау, Карл Филип Амундсен Став, Сесиль Свендсен

Описание: История повествует о Бенджамине Фальке, неудавшегося охотника за сокровищами. Он переживает черную полосу в своей жизни, бесконечные неудачи на работе, разлад в отношениях с любимой девушкой, постоянные провалы в авантюрных начинаниях заставляют мужчину задуматься о необходимости решения проблем. Пригласив возлюбленную в необычное романтическое путешествие на Майорку, он задумал заняться поисками древнего артефакта, который принадлежал жестокому пирату, погибшему сотни лет назад. Вместе они находят легендарный Кинжал, который несет смерть своим обладателям.

Качество: WEB-DL 720p
Формат: MKV

Видео: MPEG-4 AVC, 1280x534, 3024 Kbit/s, 25.000 fps
Аудио: 48 kHz, AC3, 5.1, 384 Kbps | iTunes | RUS |
скриншот  скриншот  скриншот  скриншот  

Общее
Полное имя :Legend of the Ghost Dagger (2019) WEB-DL 720p.mkv
Формат : Matroska
Версия формата : Version 4
Размер файла : 2,26 Гбайт
Продолжительность : 1 ч. 34 м.
Общий поток : 3412 Кбит/сек
Дата кодирования : UTC 2020-06-30 18:39:08
Программа кодирования : mkvmerge v47.0.0 ('Black Flag') 64-bit
Библиотека кодирования : libebml v1.3.10 + libmatroska v1.5.2
Обложка : Yes
Attachments : cover.jpg

Видео
Идентификатор : 1
Формат : AVC
Формат/Информация : Advanced Video Codec
Профиль формата : High@L3.1
Настройки формата : CABAC / 5 Ref Frames
Параметр CABAC формата : Да
Параметр RefFrames формата : 5 кадров
Идентификатор кодека : V_MPEG4/ISO/AVC
Продолжительность : 1 ч. 34 м.
Битрейт : 3024 Кбит/сек
Ширина : 1280 пикселей
Высота : 534 пикселя
Соотношение сторон : 2,40:1
Режим частоты кадров : Постоянный
Частота кадров : 25,000 кадров/сек
Цветовое пространство : YUV
Субдискретизация насыщенности : 4:2:0
Битовая глубина : 8 бит
Тип развёртки : Прогрессивная
Бит/(Пиксели*Кадры) : 0.177
Размер потока : 2,00 Гбайт (89%)
Заголовок : Norway (Creative Lads)
Язык : English
Default : Да
Forced : Нет

Аудио
Идентификатор : 2
Формат : AC-3
Формат/Информация : Audio Coding 3
Коммерческое название : Dolby Digital
Идентификатор кодека : A_AC3
Продолжительность : 1 ч. 34 м.
Вид битрейта : Постоянный
Битрейт : 384 Кбит/сек
Каналы : 6 каналов
ChannelLayout : L R C LFE Ls Rs
Частота : 48,0 КГц
Частота кадров : 31,250 кадров/сек (1536 SPF)
Битовая глубина : 16 бит
Метод сжатия : С потерями
Размер потока : 260 Мбайт (11%)
Заголовок : Dub (iTunes)
Язык : Russian
ServiceKind : Complete Main
Default : Да
Forced : Нет

Меню
00:00:00.000 : en:Глава 1
00:02:36.280 : en:Глава 2
00:11:31.800 : en:Глава 3
00:22:58.240 : en:Глава 4
00:36:57.600 : en:Глава 5
00:42:48.120 : en:Глава 6
00:54:36.160 : en:Глава 7
01:00:59.080 : en:Глава 8
01:10:54.440 : en:Глава 9
01:17:13.400 : en:Глава 10
01:25:03.040 : en:Глава 11
01:31:19.440 : en:Глава 12

pb.wtf



Скачать Легенда о призрачном кинжале через торрент https://i112.fastpic.ru/big/2020/0630/be/6a4068566e970108d15e97e5bca552be.jpg Скачать фильм Легенда о призрачном кинжале через торрент бесплантно в хорошем качестве Описание: История повествует о Бенджамине Фальке, неудавшегося охотника за сокровищами. Он переживает черную полосу в своей жизни, ... 8.9 10 8
Торрент: Зарегистрирован [2020-07-02 05:10] · скачан: 128 раз
Статус: √ проверено
Размер: 2.26 GB
Как cкачать? Как скачать Легенда о призрачном кинжале через торрент | qTorrent

% Раздел Тема Автор DL S | L
Фильмы 2019-2020 [DVDrip, WEB-DLRip, HDrip] (DUB, MVO) [ 1.46 GB ] Легенда о призрачном кинжале / Benjamin Falck and the Ghost Dagger [2019 WEB-DLRip] bober100 Скачать
4 | 0
Фильмы (WEB-DL 720p, 1080p) [ 3.35 GB ] Легенда о призрачном кинжале / Benjamin Falck and the Ghost Dagger [2019 WEB-DL 1080p] bober100 Скачать
4 | 0
Фильмы 2019-2020 [DVDrip, WEB-DLRip, HDrip] (DUB, MVO) [ 708 MB ] Легенда о призрачном кинжале / Benjamin Falck and the Ghost Dagger [2019 WEB-DLRip ""] coc900 Скачать
2 | 0

28-11-2019 20:33  

Отключить всю рекламу на сайте

02-07-2020 09:28 Легенда о призрачном кинжале Скачать торрент  

Безрукий выхватил кинжал
и за безногим побежал,
слепой увидел это дело
и все глухому рассказал…
pb.wtf



02-07-2020 16:08 Легенда о призрачном кинжале Скачать торрент  

Конченый фильм.pb.wtf



    Дорогой пользователь! Огромная просьба, поблагодарите релизера, оцените раздачу и оставьте свои комментарий, если Вы скачали Легенда о призрачном кинжале через торрент бесплатно! Внесите свою лепту в развитие PiratBit!
    Комментировать посты могут только пользователи прошедшие не сложную регистрацию
    Показать сообщения:    

    Легенда о призрачном кинжале через торрент
    Скачать бесплатно Легенда о призрачном кинжале
    Легенда о призрачном кинжале скачать торрент
    Легенда о призрачном кинжале смотреть онлайн
    Cкачать фильм Легенда о призрачном кинжале бесплатно
    Легенда о призрачном кинжале скачать торрент в хорошем качестве
    Легенда о призрачном кинжале смотреть онлайн бесплатно в хорошем качестве


    Вы не можете начинать темы
    Вы не можете отвечать на сообщения
    Вы не можете редактировать свои сообщения
    Вы не можете удалять свои сообщения
    Вы не можете голосовать в опросах
    Вы не можете прикреплять файлы к сообщениям
    Вы можете скачивать файлы