2 сезон

iTunes

MVO

1

2 сезон

iTunes

iTunes

1 сезон

RePack

30

Новинка

ВАЖНО

ИГРА 18+

pack

RePack

MK11
pack

Легкие деньги

RePack

jed

RePack

fifa19

RePack

RDR2

RePack

NEED FOR SPEED™ PAYBACK

4 сезон

9 сезон

Бесстыжие 9 сезон

Все сериалы

все сериалы на PB.wtf

RePack

FAR CRY 5

Anonymous, доброй ночи, мы не успеваем собрать деньги на оплату серверов за декабрь и январь, помогите нам пожалуйста в это трудное время. В качестве благодарности мы отключим Вам всю рекламу на сайте (укажите свой ник в строку Ваше имя)!

×
  
Magnet ссылка

ЦРУ: Операция «Алекса» / CIA Code Name: Alexa (Джозеф Мерхи) [1992 г., боевик, триллер, приключения, BDRip 720p / 60 FPS, Профессиональный (многоголосый)]от R.G. HD-Films pb.wtf

ЦРУ: Операция «Алекса» через торрент pb.wtf

Размер: 3.62 GB | Добавлен: 6 мес. назад | Торрент скачан:12 раз
Скачать  

02-07-2020 16:46 ЦРУ: Операция «Алекса» Скачать торрент  

ЦРУ: Операция «Алекса» / CIA Code Name: Alexa
Год выпуска: 1992
Страна: США
Жанр: боевик, триллер, приключения
Продолжительность: 01:34:15
Перевод: Профессиональный (многоголосый закадровый) ( ТНТ )

Режиссер: Джозеф Мерхи

Премьера в мире: 24 сентября 1992

rating

В ролях: Кэтлин Кинмонт, Лоренцо Ламас, О. Дж. Симпсон, Алекс Корд, Памела Диксон, Джефф Григгс, Майкл Бэйли Смит, Стивен Квадрос, Шонна Кобб, Клэйтон Стэггс

Описание: Суперагент ЦРУ Макс Грейвен ловит террористку Алексу. Она — одна из самых опытных, но ее бы энергию да в мирных целях. Макс должен заставить ее работать на власти в борьбе против психопата и авантюриста мирового масштаба Виктора Малера. Ему позарез нужна секретнейшая микросхема, с помощью которой Виктор может стать хозяином мира. Алекса выкрала микросхему, но Малер взял в заложницы ее дочь, и теперь Макс вместе с полицейским Мерфи и Алексой должны спасти девочку и весь мир.

Качество: BDRip 720p / 60 FPS
Формат: MKV
Видео кодек: H.264
Аудио кодек: AC3
Видео: x264, 1280 x 720 (16:9 ), 5307 kbps, 60,000 fps, ( 0.096 bpp)
Аудио#1: Русский, AC-3, 48.0 KHz, 2 ch, 192 Kbps MVO ( ТНТ )
Релиз от:

скриншот   скриншот   скриншот   скриншот   скриншот   скриншот  Автор рипа: slaventi-69
x264 [info]: frame I:1925 Avg QP:14.02 size: 91419
x264 [info]: frame P:87069 Avg QP:14.81 size: 24940
x264 [info]: frame B:250009 Avg QP:17.64 size: 5603
x264 [info]: consecutive B-frames: 4.3% 2.5% 11.4% 15.0% 59.5% 7.2%


Общее
Уникальный идентификатор : 201201175416449018918588270321264799421 (0x975DEFD5EDC778F98CCC262D93BCAEBD)
Полное имя : F:\CIA.Code.Name.Alexa.(1992).BDRip.720p.(60 Fps).mkv
Формат : Matroska
Версия формата : Version 4
Размер файла : 3,62 Гбайт
Продолжительность : 1 ч. 34 м.
Общий поток : 5503 Кбит/сек
Название фильма : ЦРУ: Операция «Алекса» / CIA Code Name: Alexa (1992) BDRip 720p (60 Fps)
Дата кодирования : UTC 2020-07-02 15:54:54
Программа кодирования : mkvmerge v12.0.0 ('Trust / Lust') 64bit
Библиотека кодирования : libebml v1.3.4 + libmatroska v1.4.5

Видео
Идентификатор : 1
Формат : AVC
Формат/Информация : Advanced Video Codec
Профиль формата : High@L4.1
Настройки формата : CABAC / 9 Ref Frames
Параметр CABAC формата : Да
Параметр RefFrames формата : 9 кадров
Идентификатор кодека : V_MPEG4/ISO/AVC
Продолжительность : 1 ч. 34 м.
Битрейт : 5307 Кбит/сек
Ширина : 1280 пикселей
Высота : 720 пикселей
Соотношение сторон : 16:9
Режим частоты кадров : Постоянный
Частота кадров : 60,000 кадров/сек
Цветовое пространство : YUV
Субдискретизация насыщенности : 4:2:0
Битовая глубина : 8 бит
Тип развёртки : Прогрессивная
Бит/(Пиксели*Кадры) : 0.096
Размер потока : 3,49 Гбайт (96%)
Заголовок : slaventi-69 ( R.G. HD-Films | 60 fps )
Библиотека кодирования : x264 core 130 r2273 b3065e6
Настройки программы : cabac=1 / ref=9 / deblock=1:0:0 / analyse=0x3:0x133 / me=umh / subme=9 / psy=1 / psy_rd=1.00:0.00 / mixed_ref=1 / me_range=32 / chroma_me=1 / trellis=2 / 8x8dct=1 / cqm=0 / deadzone=21,11 / fast_pskip=0 / chroma_qp_offset=-2 / threads=10 / lookahead_threads=2 / sliced_threads=0 / nr=0 / decimate=1 / interlaced=0 / bluray_compat=0 / constrained_intra=0 / bframes=5 / b_pyramid=2 / b_adapt=2 / b_bias=0 / direct=1 / weightb=1 / open_gop=0 / weightp=2 / keyint=600 / keyint_min=23 / scenecut=40 / intra_refresh=0 / rc=crf / mbtree=0 / crf=16.0 / qcomp=0.60 / qpmin=0 / qpmax=69 / qpstep=4 / ip_ratio=1.40 / pb_ratio=1.30 / aq=1:1.00
Язык : English
Default : Да
Forced : Нет

Аудио
Идентификатор : 2
Формат : AC-3
Формат/Информация : Audio Coding 3
Коммерческое название : Dolby Digital
Идентификатор кодека : A_AC3
Продолжительность : 1 ч. 34 м.
Вид битрейта : Постоянный
Битрейт : 192 Кбит/сек
Каналы : 2 канала
Channel layout : L R
Частота : 48,0 КГц
Частота кадров : 31,250 кадров/сек (1536 SPF)
Битовая глубина : 16 бит
Метод сжатия : С потерями
Размер потока : 129 Мбайт (3%)
Заголовок : MVO ( ТНТ )
Язык : Russian
ServiceKind/String : Complete Main
Default : Да
Forced : Нет

Меню
00:00:00.000 : en:00:00:00.000
00:05:00.000 : en:00:05:00.000
00:10:00.000 : en:00:10:00.000
00:15:00.000 : en:00:15:00.000
00:20:00.000 : en:00:20:00.000
00:25:00.000 : en:00:25:00.000
00:30:00.000 : en:00:30:00.000
00:35:00.000 : en:00:35:00.000
00:40:00.000 : en:00:40:00.000
00:45:00.000 : en:00:45:00.000
00:50:00.000 : en:00:50:00.000
00:55:00.000 : en:00:55:00.000
01:00:00.000 : en:01:00:00.000
01:05:00.000 : en:01:05:00.000
01:10:00.000 : en:01:10:00.000
01:15:00.000 : en:01:15:00.000
01:20:00.000 : en:01:20:00.000
01:25:00.000 : en:01:25:00.000
01:30:00.000 : en:01:30:00.000

Просьба к переливающим на другие сайты, в оформлении указывайте пожалуйста авторство группы R.G. HD-Films pb.wtf



Скачать ЦРУ: Операция «Алекса» через торрент https://b.radikal.ru/b21/1811/d1/fa41dedabb1a.jpg Скачать фильм ЦРУ: Операция «Алекса» через торрент бесплантно в хорошем качестве Описание: Суперагент ЦРУ Макс Грейвен ловит террористку Алексу. Она — одна из самых опытных, но ее бы энергию да в мирных целях. Макс ... 10 10 3
Торрент: Зарегистрирован [2020-07-02 16:46] · скачан: 12 раз
Статус: √ проверено
Размер: 3.62 GB
Как cкачать? Как скачать ЦРУ: Операция «Алекса» через торрент | UTorrent

28-11-2019 20:33  

Отключить всю рекламу на сайте

02-07-2020 18:08 ЦРУ: Операция «Алекса» Скачать торрент  

Огромное спасибо за фильм!!! Не так давно он вышел на блюрике. Ламас, Симпсон, ну и само собой Катюха Кинмонт супер!!! Вторая часть конечно уже не то. Благодарю за такой подарок!!! Низкий Вам поклон за труды.pb.wtf



02-07-2020 18:18 ЦРУ: Операция «Алекса» Скачать торрент  

Пожалуйста. Смотрите в удовольствие.pb.wtf



    Дорогой пользователь! Огромная просьба, поблагодарите релизера, оцените раздачу и оставьте свои комментарий, если Вы скачали ЦРУ: Операция «Алекса» через торрент бесплатно! Внесите свою лепту в развитие PiratBit!
    Комментировать посты могут только пользователи прошедшие не сложную регистрацию
    Показать сообщения:    

    ЦРУ: Операция «Алекса» через торрент
    Скачать бесплатно ЦРУ: Операция «Алекса»
    ЦРУ: Операция «Алекса» скачать торрент
    ЦРУ: Операция «Алекса» смотреть онлайн
    Cкачать фильм ЦРУ: Операция «Алекса» бесплатно
    ЦРУ: Операция «Алекса» скачать торрент в хорошем качестве
    ЦРУ: Операция «Алекса» смотреть онлайн бесплатно в хорошем качестве


    Вы не можете начинать темы
    Вы не можете отвечать на сообщения
    Вы не можете редактировать свои сообщения
    Вы не можете удалять свои сообщения
    Вы не можете голосовать в опросах
    Вы не можете прикреплять файлы к сообщениям
    Вы можете скачивать файлы