Всегда рабочее зеркало без VPN и Proxy просто перед .vidak.icu напиши любое слово или цифру, Пример http://3yvo.vidak.icu

MVO

2 сезон

1 сезон

1

1 сезон

iTunes

2 сезон

13

1 сезон

Распродажа

pack

Рекомендуем

Пиратка

30

ВАЖНО

RePack

MK11

RePack

jed

RePack

fifa19

RePack

RDR2

RePack

NEED FOR SPEED™ PAYBACK

Кинопоиск HD

6 сезон

 Острые козырьки 6 сезон

Все сериалы

все сериалы на PB.wtf

RePack

FAR CRY 5

Anonymous, нам критически не хватает 5601 руб. на оплату серверов и переферии за Апрель, помоги нам пожалуйста, вся надежда только на тебя. В благодарность мы отключим тебе всю рекламу на сайте!

×
  
Magnet ссылка

Сангари в 3Д / Sangaree 3D (Эдвард Людвиг / Edward Ludwig) [1953, мелодрама, драма, приключения, история, BDRip, 1080p] OverUnder / Вертикальная стереопара (VO) pb.wtf

Сангари в 3Д через торрент pb.wtf

Раздают: 1 [ 0 KB/s ]
Размер: 20.8 GB | Добавлен: 1 год 10 мес. назад | Торрент скачан:13 раз
Смотреть онлайн Сангари в 3Д | Скачать    Ребята, помогите собрать деньги на оплату серверов!!!

03-07-2020 14:22 Сангари в 3Д Скачать торрент  

Сангари / Sangaree

Год выпуска: 1953
Страна: США (Paramount Pictures)
Жанр: мелодрама, драма, приключения, история
Продолжительность: 01:35:15

Перевод: Любительский одноголосый закадровый - NoNamed (перевод любительский - Ash61)
Русские субтитры: нет
Режиссер: Эдвард Людвиг / Edward Ludwig

В ролях: Фернандо Ламас, Арлин Даль, Патриция Медина, Френсис Л. Салливан, Чарльз Корвин, Том Дрэйк, Джон Саттон, Уиллард Паркер, Чарльз Эванс, Лестер Мэтьюз

Описание: После войны за независимость умирающий генерал Дарби завещает свою плантацию в Джорджии доктору Карлосу Моралесу, сыну наемного слуги, который был выращен и воспитан генералом Дарби. Дочь генерала Нэнси Дарби решает оспорить завещание отца, чтобы контролировать поместье и остановить создание сети бесплатных клиник для бедных. Истинными бенефициарами этого противостояния являются её жених Харви Бристоль и его отец, доктор Бристоль, которые имеют свои виды на имущество Дарби. Вспышка чумы в Саванне еще больше осложняет ситуацию в Сангари.

Сэмпл: http://sendfile.su/1567663

Качество: BDrip, 1080p
Контейнер: MKV
Формат 3D: OverUnder / Вертикальная стереопара
Порядок ракурсов: левый ракурс первый
Видео кодек: x264
Аудио кодек: AC3
Видео: AVC / High@L5.0 / 23,976 fps / 1920х2160 / 29,7 Мбит/сек
Аудио: Русский / AC3 / 48 KHz / 2.0 ch / 448 Кбит/сек (VO - NoNamed) (моно)
Аудио 2: Английский / AC3 / 48 KHz / 2.0 ch / 448 Кбит/сек

ВНИМАНИЕ ! На встроенных ТВ-плеерах работать не будет!!!

ТВ Samsung в названии которого есть надпись Ultra HD , и LG Ultra HD 800 серии, LG C6P, Xiaomi Mi TV 2, GRUNDIG VLE 8474 BL воспроизводят полные стереопары встроенными плеерами
Железные плееры на которых воспроизводятся полные стереопары:Popcorn C-200, Popcorn a-400, Dune HD Smart D1 , Dune HD DUO , Dune HD Smart H1 , Dune HD Smart B1 , Dune HD Max , Dune HD TV-303D, Dune HD TV-102, Dune HD Base 3D, Philips HMP7001, Aura HD, MECOOL BB2, Zidoo x9s, Lake I Cloud, MiBox 3
Чтобы изображение было на весь экран в плеере выставляем, если рип 1920х1600 - то выставляем 2.35:1 , если 1920х2160 - то выставляем 16:9
Общее
Уникальный идентификатор : 179306476014447928871108006774822222865 (0x86E52BCFB123CD5AB60B82103ED93C11)
Полное имя : E:\видео\Sangaree.Rip by SeRoGa00.mkv
Формат : Matroska
Версия формата : Version 2
Размер файла : 20,8 Гбайт
Продолжительность : 1 ч. 35 м.
Общий поток : 31,3 Мбит/сек
Дата кодирования : UTC 2020-07-03 02:52:19
Программа кодирования : mkvmerge v3.4.0 ('Rapunzel') сборка от May 15 2010 09:38:20
Библиотека кодирования : libebml v0.8.0 + libmatroska v0.9.0

Видео
Идентификатор : 1
Формат : AVC
Формат/Информация : Advanced Video Codec
Профиль формата : High@L5.0
Параметр CABAC формата : Да
Параметр ReFrames формата : 4 кадра
Идентификатор кодека : V_MPEG4/ISO/AVC
Продолжительность : 1 ч. 35 м.
Битрейт : 29,7 Мбит/сек
Ширина : 1920 пикселей
Высота : 2160 пикселей
Соотношение сторон : 0,889
Частота кадров : 23,976 кадра/сек
Цветовое пространство : YUV
Субдискретизация насыщенности : 4:2:0
Битовая глубина : 8 бит
Тип развёртки : Прогрессивная
Бит/(Пиксели*Кадры) : 0.299
Размер потока : 19,8 Гбайт (95%)
Заголовок : Rip by SeRoGa00
Библиотека кодирования : x264 core 157 r2969 d4099dd
Настройки программы : cabac=1 / ref=4 / deblock=1:-3:-3 / analyse=0x3:0x113 / me=umh / subme=10 / psy=1 / psy_rd=1.00:0.15 / mixed_ref=1 / me_range=24 / chroma_me=1 / trellis=2 / 8x8dct=1 / cqm=0 / deadzone=21,11 / fast_pskip=1 / chroma_qp_offset=-3 / threads=18 / lookahead_threads=6 / sliced_threads=0 / nr=0 / decimate=0 / interlaced=0 / bluray_compat=0 / constrained_intra=0 / bframes=10 / b_pyramid=2 / b_adapt=2 / b_bias=0 / direct=3 / weightb=1 / open_gop=0 / weightp=2 / keyint=250 / keyint_min=23 / scenecut=40 / intra_refresh=0 / rc_lookahead=60 / rc=crf / mbtree=1 / crf=18.0 / qcomp=0.60 / qpmin=10 / qpmax=69 / qpstep=4 / vbv_maxrate=40000 / vbv_bufsize=40000 / crf_max=0.0 / nal_hrd=none / filler=0 / ip_ratio=1.40 / aq=1:1.00
Язык : English
Default : Нет
Forced : Нет

Аудио #1
Идентификатор : 2
Формат : AC-3
Формат/Информация : Audio Coding 3
Расширение режима : CM (complete main)
Параметр Endianness формата : Big
Идентификатор кодека : A_AC3
Продолжительность : 1 ч. 35 м.
Вид битрейта : Постоянный
Битрейт : 448 Кбит/сек
Каналы : 2 канала
Расположение каналов : Front: L R
Частота : 48,0 КГц
Битовая глубина : 16 бит
Метод сжатия : С потерями
Размер потока : 305 Мбайт (1%)
Язык : Russian
Default : Да
Forced : Нет

Аудио #2
Идентификатор : 3
Формат : AC-3
Формат/Информация : Audio Coding 3
Расширение режима : CM (complete main)
Параметр Endianness формата : Big
Идентификатор кодека : A_AC3
Продолжительность : 1 ч. 35 м.
Вид битрейта : Постоянный
Битрейт : 448 Кбит/сек
Каналы : 2 канала
Расположение каналов : Front: L R
Частота : 48,0 КГц
Битовая глубина : 16 бит
Метод сжатия : С потерями
Размер потока : 305 Мбайт (1%)
Язык : English
Default : Нет
Forced : Нет

Меню
00:00:00.000 : en:00:00:00.000
00:09:47.086 : en:00:09:47.086
00:19:53.775 : en:00:19:53.775
00:30:01.798 : en:00:30:01.798
00:40:08.530 : en:00:40:08.530
00:53:03.637 : en:00:53:03.637
01:00:45.516 : en:01:00:45.516
01:10:44.155 : en:01:10:44.155
01:20:48.635 : en:01:20:48.635
01:29:49.841 : en:01:29:49.841
скриншот  

скриншот  

скриншот  

скриншот  

скриншот  

скриншот  

скриншот  

скриншот  
pb.wtf



Скачать Сангари в 3Д через торрент https://a.radikal.ru/a28/2007/06/d59932648bba.png Скачать, смотреть онлайн Сангари в 3Д бесплантно в хорошем качестве Описание: После войны за независимость умирающий генерал Дарби завещает свою плантацию в Джорджии доктору Карлосу Моралесу, сыну наемного ... 5 10 1
Торрент: Зарегистрирован [2020-07-03 14:22] · скачан: 13 раз
Статус: √ проверено
Размер: 20.8 GB
Как cкачать? Как скачать Сангари в 3Д через торрент | UTorrent

28-11-2019 20:33  

Отключить всю рекламу на сайте

03-07-2020 22:03 Сангари в 3Д Скачать торрент  

и как подходящий жанр для 3д?pb.wtf



    Дорогой пользователь! Огромная просьба, поблагодарите релизера, оцените раздачу и оставьте свои комментарий, если Вы скачали Сангари в 3Д через торрент бесплатно!
    Комментировать посты могут только пользователи прошедшие не сложную регистрацию
    Показать сообщения:    

    Сангари в 3Д через торрент
    Скачать бесплатно Сангари в 3Д
    Сангари в 3Д скачать торрент
    Сангари в 3Д смотреть онлайн
    Cкачать фильм Сангари в 3Д бесплатно
    Сангари в 3Д скачать торрент в хорошем качестве
    Сангари в 3Д смотреть онлайн бесплатно в хорошем качестве


    Вы не можете начинать темы
    Вы не можете отвечать на сообщения
    Вы не можете редактировать свои сообщения
    Вы не можете удалять свои сообщения
    Вы не можете голосовать в опросах
    Вы не можете прикреплять файлы к сообщениям
    Вы можете скачивать файлы