Ссылка на приватное зеркало всего за 1$. Внимание количество ограничено!!!

iTunes

iTunes

iTunes

1

iTunes

iTunes

iTunes

WEBRip

iTunes

30
pack

$ от Little Big

ВАЖНО

!!Акция!!

Alien_RageХит недели

RePack

Resident Evil 21

ИГРА 18+

pack

RePack

jed

!!Акция!!

Alien_Rage

RePack

fifa19

RePack

Assassins Creed: Odyssey

RePack

NEED FOR SPEED™ PAYBACK

4 сезон

9 сезон

Бесстыжие 9 сезон

Все сериалы

все сериалы на PB.wtf

RePack

FAR CRY 5
  

Эма: Танец страсти / Ema (Пабло Ларраин) [2019, Драма, музыка, BDRip 1080p] MVO [iTunes] pb.wtf

Эма: Танец страсти через торрент pb.wtf

Раздают: 1 [ 41 KB/s ]
Размер: 8.58 GB | Добавлен: 1 мес. 4 д. назад | Торрент скачан:20 раз
Скачать  

04-07-2020 05:01 Эма: Танец страсти Скачать торрент  

Эма: Танец страсти | Ema
Год выпуска: 2019
Страна: Чили
Студия: FABULA
Жанр: Драма, музыка
Продолжительность: 01:46:59
Перевод: Профессиональный (многоголосый, закадровый) | iTunes
Субтитры: Английские, французские

Режиссер: Пабло Ларраин

rating

В ролях: Мариана Ди Джироламо, Гаэль Гарсиа Берналь, Сантьяго Кабрера, Хосефина Фьебелькорн, Джаннина Фруттеро, Паола Джаннини, Антония Гизен, Сусана Идальго, Паула Хофманн, Мариана Лойола

Описание: После того, как шокирующий инцидент разрушает ее брак с хореографом Гастоном, танцовщица Эма погружается в мир реггетона - уличного танцевального и музыкального стиля. Новый творческий путь становится для нее одиссеей страсти, желания, освобождения и обретения себя.

Качество: BDRip 1080p
Формат: MKV

Видео: MPEG-4 AVC, 1920x806, 10.5 Mbit/s, 24.000 fps
Аудио #01: 48 kHz, AC3, 5.1, 384 Kbps | iTunes | RUS |
Аудио #02: 48 kHz, AC3, 5.1, 640 Kbps | Оригинал | SPA |
скриншот  скриншот  скриншот  скриншот  скриншот  

General
Unique ID: 134016561878896059583564660964797198847 (0x64D2A6A51823FAE544DE95D1D4E031FF)
Complete name: E:Video111Ema.2019.BDRip.1080p.seleZen.mkv
Format: Matroska
Format version: Version 4
File size: 8.58 GiB
Duration: 1 h 46 min
Overall bit rate: 11.5 Mb/s
Movie name: Ema 2019 from селезень
Encoded date: UTC 2020-07-03 18:46:35
Writing application: mkvmerge v40.0.0 ('Old Town Road + Pony') 64-bit
Writing library: libebml v1.3.9 + libmatroska v1.5.2

Video
ID: 1
Format: AVC
Format/Info: Advanced Video Codec
Format profile: High@L4.1
Format settings: CABAC / 5 Ref Frames
Format settings, CABAC: Yes
Format settings, Reference frames: 5 frames
Codec ID: V_MPEG4/ISO/AVC
Duration: 1 h 46 min
Bit rate: 10.5 Mb/s
Width: 1 920 pixels
Height: 806 pixels
Display aspect ratio: 2.40:1
Frame rate mode: Constant
Frame rate: 24.000 FPS
Color space: YUV
Chroma subsampling: 4:2:0
Bit depth: 8 bits
Scan type: Progressive
Bits/(Pixel*Frame): 0.281
Stream size: 7.81 GiB (91%)
Title: Encoded by seleZen
Writing library: x264 core 142 r2431+42 c69a006 tMod [8-bit@all X86_64]
Encoding settings: cabac=1 / ref=5 / deblock=1:-2:-2 / analyse=0x3:0x133 / me=umh / subme=10 / psy=1 / fade_compensate=0.00 / psy_rd=1.00:0.00 / mixed_ref=1 / me_range=32 / chroma_me=1 / trellis=2 / 8x8dct=1 / cqm=0 / deadzone=21, 11 / fast_pskip=0 / chroma_qp_offset=-2 / threads=24 / lookahead_threads=4 / sliced_threads=0 / nr=0 / decimate=0 / interlaced=0 / bluray_compat=0 / constrained_intra=0 / fgo=0 / bframes=9 / b_pyramid=2 / b_adapt=2 / b_bias=0 / direct=3 / weightb=1 / open_gop=0 / weightp=2 / keyint=240 / keyint_min=24 / scenecut=40 / intra_refresh=0 / rc_lookahead=50 / rc=crf / mbtree=0 / crf=16.8000 / qcomp=0.60 / qpmin=0:0:0 / qpmax=51:51:51 / qpstep=4 / vbv_maxrate=50000 / vbv_bufsize=62500 / crf_max=0.0 / nal_hrd=none / filler=0 / ip_ratio=1.40 / pb_ratio=1.30 / aq=3:0.80 / aq-sensitivity=10.00 / aq-factor=1.00:1.00:1.00 / aq2=0 / aq3=0
Language: English
Default: Yes
Forced: No

Audio #1
ID: 2
Format: AC-3
Format/Info: Audio Coding 3
Commercial name: Dolby Digital
Codec ID: A_AC3
Duration: 1 h 46 min
Bit rate mode: Constant
Bit rate: 384 kb/s
Channel(s): 6 channels
Channel layout: L R C LFE Ls Rs
Sampling rate: 48.0 kHz
Frame rate: 31.250 FPS (1536 SPF)
Compression mode: Lossy
Stream size: 294 MiB (3%)
Title: iTunes
Language: Russian
Service kind: Complete Main
Default: Yes
Forced: Yes

Audio #2
ID: 3
Format: AC-3
Format/Info: Audio Coding 3
Commercial name: Dolby Digital
Codec ID: A_AC3
Duration: 1 h 46 min
Bit rate mode: Constant
Bit rate: 640 kb/s
Channel(s): 6 channels
Channel layout: L R C LFE Ls Rs
Sampling rate: 48.0 kHz
Frame rate: 31.250 FPS (1536 SPF)
Compression mode: Lossy
Stream size: 490 MiB (6%)
Title: Original
Language: Spanish
Service kind: Complete Main
Default: No
Forced: No

Text #1
ID: 4
Format: UTF-8
Codec ID: S_TEXT/UTF8
Codec ID/Info: UTF-8 Plain Text
Duration: 1 h 37 min
Bit rate: 47 b/s
Count of elements: 1062
Stream size: 34.2 KiB (0%)
Title: Full
Language: English
Default: No
Forced: No

Text #2
ID: 5
Format: UTF-8
Codec ID: S_TEXT/UTF8
Codec ID/Info: UTF-8 Plain Text
Duration: 1 h 37 min
Bit rate: 50 b/s
Count of elements: 1056
Stream size: 36.0 KiB (0%)
Title: Full
Language: French
Default: No
Forced: No

Menu
00:00:00.000: es:Глава 01
00:09:27.792: es:Глава 02
00:19:21.750: es:Глава 03
00:29:46.542: es:Глава 04
00:38:21.042: es:Глава 05
00:51:14.250: es:Глава 06
00:59:43.625: es:Глава 07
01:06:22.042: es:Глава 08
01:14:13.167: es:Глава 09
01:25:43.208: es:Глава 10
01:34:45.708: es:Глава 11
01:43:10.625: es:Глава 12

pb.wtf



Скачать Эма: Танец страсти через торрент https://i112.fastpic.ru/big/2020/0704/04/e8f37a4382311df9727248e413879004.jpg Скачать фильм Эма: Танец страсти через торрент бесплантно в хорошем качестве Описание: После того, как шокирующий инцидент разрушает ее брак с хореографом Гастоном, танцовщица Эма погружается в мир реггетона - ... 10 10 4
Торрент: Зарегистрирован [2020-07-04 05:01] · скачан: 20 раз
Статус: √ проверено
Размер: 8.58 GB
Как cкачать? Как скачать Эма: Танец страсти через торрент | qTorrent

% Раздел Тема Автор DL S | L
Фильмы 2019-2020 [DVDrip, WEB-DLRip, HDrip] (DUB, MVO) [ 1.42 GB ] Эма: Танец страсти / Ema [2019 музыка BDRip] MVO Twi7ter Скачать
3 | 0
Фильмы (Blu-ray, BD-Remux, HDDVD) [ 27.77 GB ] Эма: Танец страсти / Ema [2019 музыка BD Remux 1080p] MVO bober100 Скачать
1 | 0
Фильмы [HD 720p, 1080p] (Хороший звук DUB, MVO) [ 3.17 GB ] Эма: Танец страсти / Ema [2019 музыка BDRip 720p] MVO bober100 Скачать
1 | 0
Фильмы (WEB-DL 720p, 1080p) [ 3.19 GB ] Эма: Танец страсти / Ema [2019 музыка WEB-DL 720p] MVO bober100 Скачать
1 | 0
Фильмы 2019-2020 [DVDrip, WEB-DLRip, HDrip] (DUB, MVO) [ 1.46 GB ] Эма: Танец страсти / Ema [2019 музыка BDRip] MVO bober100 Скачать
2 | 0
Фильмы 2019-2020 [DVDrip, WEB-DLRip, HDrip] (DUB, MVO) [ 746 MB ] Эма: Танец страсти / Ema [2019 музыка HDRip] MVO bober100 Скачать
2 | 0

28-11-2019 20:33  

Отключить всю рекламу на сайте

04-07-2020 08:41 Эма: Танец страсти Скачать торрент  

прочитал описание. Я занималась балетом, потом рассталась с парнем и ударилась во все тяжкие. -Героин? - Нет, Сальса....pb.wtf



    Дорогой пользователь! Огромная просьба, поблагодарите релизера, оцените раздачу и оставьте свои комментарий, если Вы скачали Эма: Танец страсти через торрент бесплатно! Внесите свою лепту в развитие PiratBit!
    Комментировать посты могут только пользователи прошедшие не сложную регистрацию
    Показать сообщения:    

    Эма: Танец страсти через торрент
    Скачать бесплатно Эма: Танец страсти
    Эма: Танец страсти скачать торрент
    Эма: Танец страсти смотреть онлайн
    Cкачать фильм Эма: Танец страсти бесплатно
    Эма: Танец страсти скачать торрент в хорошем качестве
    Эма: Танец страсти смотреть онлайн бесплатно в хорошем качестве


    Вы не можете начинать темы
    Вы не можете отвечать на сообщения
    Вы не можете редактировать свои сообщения
    Вы не можете удалять свои сообщения
    Вы не можете голосовать в опросах
    Вы не можете прикреплять файлы к сообщениям
    Вы можете скачивать файлы