Ссылка на приватное зеркало всего за 1$. Внимание количество ограничено!!!

iTunes

iTunes

iTunes

1

iTunes

iTunes

iTunes

WEBRip

iTunes

30
pack

$ от Little Big

ВАЖНО

!!Акция!!

Alien_RageХит недели

RePack

Resident Evil 21

ИГРА 18+

pack

RePack

jed

!!Акция!!

Alien_Rage

RePack

fifa19

RePack

Assassins Creed: Odyssey

RePack

NEED FOR SPEED™ PAYBACK

4 сезон

9 сезон

Бесстыжие 9 сезон

Все сериалы

все сериалы на PB.wtf

RePack

FAR CRY 5
  

Евротур / EuroTrip (Джефф Шаффер, Алек Берг, Дэвид Мэндел) [2004 г., комедия., BDRip - HEVC 1080p 10 bit 60 FPS, Дубляж] pb.wtf

Евротур через торрент pb.wtf

Раздают: 7 [ 5 KB/s ]
Размер: 2.81 GB | Добавлен: 1 мес. 5 д. назад | Торрент скачан:79 раз
Скачать  

04-07-2020 10:21 Евротур Скачать торрент  

Евротур / EuroTripГод выпуска: 2004
Страна: США, Чехия
Жанр: комедия.
Продолжительность: 01:30:05
Перевод: Дубляж

Режиссер: Джефф Шаффер, Алек Берг, Дэвид Мэндел

Бюджет: $25 000 000
Премьера в мире: 20 февраля 2004

rating

В ролях: Скотт Мехловиц, Джекоб Питтс, Кристин Крук, Кэти Мейлс, Ниел Исхаков, Мишель Трахтенберг, Трэвис Уэстер, Мэтт Дэймон, Дж. Адамс, Кристофер Бейрд

Описание: Скотт Томас — выпускник местной школы, которому нужна помощь в изучении немецкого языка, и именно для этих целей он знакомится с жителем Германии по имени Майк и начинает с ним дружескую переписку. Причём Скотт абсолютно уверен в том, что Майк — это парень, и делится с ним своими переживаниями и проблемами, которые возникают у него с девушкой. Но в конце концов Скотт узнаёт, что Майк, точнее Мике — это обворожительная блондинка, которой Скотт очень понравился. И теперь он сделает всё, чтобы увидеться с Мике, даже совершит путешествие по Европе.

Качество: BDRip 1080p / 60 FPS
Формат: MKV
Видео кодек: H.265
Аудио кодек: AC3
Видео: V_MPEGH/ISO/HEVC; 1920x1080 (16:9); 4005 Kbps; 59,940 fps; 0,032 bpp
Аудио: русский; AC3; 448 Kbps; CBR; 6 ch

Релиз от: DD2D3
скриншот   скриншот   скриншот   скриншот  

General
Unique ID : 179532633277772904894585242308364686787 (0x8710BA39AADE45AFBE194C94D9D355C3)
Complete name : D:\Евротур - EuroTrip (2004) BDRip - HEVC 1080p 10bit 60 FPS.mkv
Format : Matroska
Format version : Version 4
File size : 2.81 GiB
Duration : 1 h 30 min
Overall bit rate : 4 460 kb/s
Movie name : RIp by DD2D3
Encoded date : UTC 2020-07-04 07:58:52
Writing application : mkvmerge v10.0.0 ('To Drown In You') 32bit
Writing library : libebml v1.3.4 + libmatroska v1.4.5
Attachments : poster

Video
ID : 1
Format : HEVC
Format/Info : High Efficiency Video Coding
Format profile : Main 10@L4.1@Main
Codec ID : V_MPEGH/ISO/HEVC
Duration : 1 h 30 min
Bit rate : 4 006 kb/s
Width : 1 920 pixels
Height : 1 080 pixels
Display aspect ratio : 16:9
Frame rate mode : Constant
Frame rate : 59.940 (60000/1001) FPS
Color space : YUV
Chroma subsampling : 4:2:0
Bit depth : 10 bits
Bits/(Pixel*Frame) : 0.032
Stream size : 2.52 GiB (90%)
Writing library : x265 2.3+33-0b7d54dbb71a87a0:[Windows][MSVC 1800][64 bit] 10bit: KG7x [x265.ru]
Encoding settings : cpuid=1173503 / frame-threads=2 / numa-pools=4 / wpp / no-pmode / no-pme / no-psnr / no-ssim / log-level=2 / input-csp=1 / input-res=1920x1080 / interlace=0 / total-frames=324021 / level-idc=41 / high-tier=1 / uhd-bd=0 / ref=3 / no-allow-non-conformance / no-repeat-headers / annexb / no-aud / no-hrd / info / hash=0 / no-temporal-layers / open-gop / min-keyint=25 / keyint=250 / bframes=4 / b-adapt=2 / b-pyramid / bframe-bias=0 / rc-lookahead=20 / lookahead-slices=6 / scenecut=40 / no-intra-refresh / ctu=64 / min-cu-size=8 / no-rect / no-amp / max-tu-size=32 / tu-inter-depth=1 / tu-intra-depth=1 / limit-tu=0 / rdoq-level=0 / dynamic-rd=0.00 / no-ssim-rd / signhide / no-tskip / nr-intra=0 / nr-inter=0 / no-constrained-intra / strong-intra-smoothing / max-merge=2 / limit-refs=3 / no-limit-modes / me=1 / subme=2 / merange=57 / temporal-mvp / weightp / no-weightb / no-analyze-src-pics / deblock=0:0 / no-sao / no-sao-non-deblock / rd=3 / no-early-skip / no-rskip / no-fast-intra / no-tskip-fast / no-cu-lossless / no-b-intra / rdpenalty=0 / psy-rd=4.00 / psy-rdoq=0.00 / no-rd-refine / analysis-mode=0 / no-lossless / cbqpoffs=0 / crqpoffs=0 / rc=abr / bitrate=4000 / qcomp=0.60 / qpstep=1 / stats-write=0 / stats-read=2 / cplxblur=20.0 / qblur=0.5 / ipratio=1.10 / pbratio=1.00 / aq-mode=0 / aq-strength=0.00 / no-cutree / zone-count=0 / no-strict-cbr / qg-size=64 / rc-grain / qpmax=69 / qpmin=0 / sar=1 / overscan=0 / videoformat=5 / range=0 / colorprim=2 / transfer=2 / colormatrix=2 / chromaloc=0 / display-window=0 / max-cll=0,0 / min-luma=0 / max-luma=1023 / log2-max-poc-lsb=8 / vui-timing-info / vui-hrd-info / slices=1 / opt-qp-pps / opt-ref-list-length-pps / no-multi-pass-opt-rps / scenecut-bias=0.05 / no-opt-cu-delta-qp / no-aq-motion / no-hdr / no-hdr-opt / refine-level=5 / no-limit-sao
Default : Yes
Forced : No

Audio
ID : 2
Format : AC-3
Format/Info : Audio Coding 3
Commercial name : Dolby Digital
Codec ID : A_AC3
Duration : 1 h 30 min
Bit rate mode : Constant
Bit rate : 448 kb/s
Channel(s) : 6 channels
Channel layout : L R C LFE Ls Rs
Sampling rate : 48.0 kHz
Frame rate : 31.250 FPS (1536 SPF)
Compression mode : Lossy
Stream size : 289 MiB (10%)
Language : Russian
Service kind : Complete Main
Default : No
Forced : No

pb.wtf



Скачать Евротур через торрент https://funkyimg.com/i/365Ht.jpg Скачать фильм Евротур через торрент бесплантно в хорошем качестве Описание: Скотт Томас — выпускник местной школы, которому нужна помощь в изучении немецкого языка, и именно для этих целей он знакомится с ... 10 10 8
Торрент: Зарегистрирован [2020-07-04 10:21] · скачан: 79 раз
Статус: √ проверено
Размер: 2.81 GB
Как cкачать? Как скачать Евротур через торрент | qTorrent

% Раздел Тема Автор DL S | L
Фильмы 2001-2005 [ 2.05 GB ] Евротур / EuroTrip [2004 HDTVRip] BOND-007 Скачать
5 | 0
Фильмы [HD 720p, 1080p] (Хороший звук DUB, MVO) [ 6.37 GB ] Евротур / EuroTrip [2004 BDRip 720p] DUB AVO potroks Скачать
3 | 0
Фильмы (Blu-ray, BD-Remux, HDDVD) [ 14.38 GB ] Евротур / Eurotrip [2004 BD Remux 1080p] DUB bober100 Скачать
1 | 0
Фильмы 2001-2005 [ 690 MB ] Евротур / EuroTrip [2004 DVDRip двухголосый] Jack_orsk Скачать
1 | 0
Фильмы (WEB-DL 720p, 1080p) [ 2.28 GB ] Евротур / Eurotrip [2004 HDTVRip] Go[L]dy Скачать
1 | 1
Фильмы 2001-2005 [ 744 MB ] Евротур / EuroTrip [2004 HDRip] markfiter Скачать
1 | 0

28-11-2019 20:33  

Отключить всю рекламу на сайте

04-07-2020 15:26 Евротур Скачать торрент  

Внесите флюгекгехаймен!!!pb.wtf



04-07-2020 16:59 Евротур Скачать торрент  

Run писал(а):

Внесите флюгекгехаймен!!!

Мискузиpb.wtf



05-07-2020 17:51 Евротур Скачать торрент  

Run писал(а):

Внесите флюгекгехаймен!!!

А фразу для отмены флюгекгехаймена никто так и не запомнил pb.wtf



    Дорогой пользователь! Огромная просьба, поблагодарите релизера, оцените раздачу и оставьте свои комментарий, если Вы скачали Евротур через торрент бесплатно! Внесите свою лепту в развитие PiratBit!
    Комментировать посты могут только пользователи прошедшие не сложную регистрацию
    Показать сообщения:    

    Евротур через торрент
    Скачать бесплатно Евротур
    Евротур скачать торрент
    Евротур смотреть онлайн
    Cкачать фильм Евротур бесплатно
    Евротур скачать торрент в хорошем качестве
    Евротур смотреть онлайн бесплатно в хорошем качестве


    Вы не можете начинать темы
    Вы не можете отвечать на сообщения
    Вы не можете редактировать свои сообщения
    Вы не можете удалять свои сообщения
    Вы не можете голосовать в опросах
    Вы не можете прикреплять файлы к сообщениям
    Вы можете скачивать файлы