Ссылка на приватное зеркало всего за 1$. Внимание количество ограничено!!!

iTunes

iTunes

iTunes

1

iTunes

iTunes

iTunes

WEBRip

iTunes

30
pack

$ от Little Big

ВАЖНО

!!Акция!!

Alien_RageХит недели

RePack

Resident Evil 21

ИГРА 18+

pack

RePack

jed

!!Акция!!

Alien_Rage

RePack

fifa19

RePack

Assassins Creed: Odyssey

RePack

NEED FOR SPEED™ PAYBACK

4 сезон

9 сезон

Бесстыжие 9 сезон

Все сериалы

все сериалы на PB.wtf

RePack

FAR CRY 5
  

Чёрная Маска / Hak hap (Дэниэл Ли) [1996 г., Боевик, триллер, комедия, BDRip 720p / 60 FPS, Профессиональный (двухголосый)] от R.G. HD-Films pb.wtf

Чёрная Маска через торрент pb.wtf

Раздают: 5 [ 0 KB/s ]
Размер: 4.07 GB | Добавлен: 1 мес. 3 д. назад | Торрент скачан:72 раза
Скачать  

04-07-2020 13:56 Чёрная Маска Скачать торрент  

Чёрная Маска / Hak hap
Год выпуска: 1996
Страна: Гонконг
Жанр: Боевик, триллер, комедия
Продолжительность: 01:39:22
Перевод: Профессиональный (двухголосый)
Субтитры: Russian, English

Режиссер: Дэниэл Ли

Премьера в мире: 9 ноября 1996

rating

В ролях: Джет Ли, Чинг Ван Лау, Карен Мок, Франсуаза Йип, Конг Ланг, Энтони Вонг Чау-Санг, Моусес Чан, Кинг-фай Чунг, Кен Лок

Описание: Главный герой решается на отчаянный шаг. Путем сложнейшей хирургической операции он становится невосприимчив к боли. Кто он теперь? Мститель, не знающий пощады?
Теперь его лицо скрывает таинственная черная маска, приводящая врагов в состояние панического ужаса. Какая тайна скрывается за ней? Ответ могут дать только мертвые. Но мертвые не спешат выдавать свои секреты. А Черная Маска вновь вершит свой суд…


Качество: BDRip 720p / 60 FPS
Формат: MKV
Видео кодек: H.264
Аудио кодек: AC3
Видео: x264, 1280 x 720 ( 16:9 ), 5472 kbps, 60,000 fps, ( 0.099 bpp)
Аудио#1: Русский, AC-3, 48.0 KHz, 6 ch, 384 Kbps DVO
Релиз от:

скриншот   скриншот   скриншот   скриншот   скриншот   скриншот  Автор рипа: slaventi-69
x264 [info]: frame I:2116 Avg QP:14.47 size: 73678
x264 [info]: frame P:83503 Avg QP:15.32 size: 24659
x264 [info]: frame B:272092 Avg QP:18.31 size: 6847
x264 [info]: consecutive B-frames: 1.7% 2.4% 9.7% 17.8% 59.7% 8.8%


Общее
Уникальный идентификатор : 190233544852300902815053876062584227216 (0x8F1DA5E6545420199E97C20D6F56C590)
Полное имя : F:\Hak.hap.(1996).BDRip.720p.(60 Fps).mkv
Формат : Matroska
Версия формата : Version 4
Размер файла : 4,07 Гбайт
Продолжительность : 1 ч. 39 м.
Общий поток : 5860 Кбит/сек
Название фильма : Чёрная Маска / Hak hap (1996) BDRip 720p (60 Fps) | Гонконгская версия
Дата кодирования : UTC 2020-07-02 17:15:29
Программа кодирования : mkvmerge v12.0.0 ('Trust / Lust') 64bit
Библиотека кодирования : libebml v1.3.4 + libmatroska v1.4.5

Видео
Идентификатор : 1
Формат : AVC
Формат/Информация : Advanced Video Codec
Профиль формата : High@L4.1
Настройки формата : CABAC / 9 Ref Frames
Параметр CABAC формата : Да
Параметр RefFrames формата : 9 кадров
Идентификатор кодека : V_MPEG4/ISO/AVC
Продолжительность : 1 ч. 39 м.
Битрейт : 5472 Кбит/сек
Ширина : 1280 пикселей
Высота : 720 пикселей
Соотношение сторон : 16:9
Режим частоты кадров : Постоянный
Частота кадров : 60,000 кадров/сек
Цветовое пространство : YUV
Субдискретизация насыщенности : 4:2:0
Битовая глубина : 8 бит
Тип развёртки : Прогрессивная
Бит/(Пиксели*Кадры) : 0.099
Размер потока : 3,80 Гбайт (93%)
Заголовок : slaventi-69 ( R.G. HD-Films | 60 fps )
Библиотека кодирования : x264 core 130 r2273 b3065e6
Настройки программы : cabac=1 / ref=9 / deblock=1:-1:-1 / analyse=0x3:0x133 / me=umh / subme=9 / psy=1 / psy_rd=1.00:0.00 / mixed_ref=1 / me_range=32 / chroma_me=1 / trellis=2 / 8x8dct=1 / cqm=0 / deadzone=21,11 / fast_pskip=0 / chroma_qp_offset=-2 / threads=10 / lookahead_threads=2 / sliced_threads=0 / nr=0 / decimate=1 / interlaced=0 / bluray_compat=0 / constrained_intra=0 / bframes=5 / b_pyramid=2 / b_adapt=2 / b_bias=0 / direct=1 / weightb=1 / open_gop=0 / weightp=2 / keyint=600 / keyint_min=23 / scenecut=40 / intra_refresh=0 / rc=crf / mbtree=0 / crf=16.3 / qcomp=0.60 / qpmin=0 / qpmax=69 / qpstep=4 / ip_ratio=1.40 / pb_ratio=1.30 / aq=1:1.00
Язык : Chinese
Default : Да
Forced : Нет

Аудио
Идентификатор : 2
Формат : AC-3
Формат/Информация : Audio Coding 3
Коммерческое название : Dolby Digital
Идентификатор кодека : A_AC3
Продолжительность : 1 ч. 39 м.
Вид битрейта : Постоянный
Битрейт : 384 Кбит/сек
Каналы : 6 каналов
Channel layout : L R C LFE Ls Rs
Частота : 48,0 КГц
Частота кадров : 31,250 кадров/сек (1536 SPF)
Битовая глубина : 16 бит
Метод сжатия : С потерями
Размер потока : 273 Мбайт (7%)
Заголовок : DVO
Язык : Russian
ServiceKind/String : Complete Main
Default : Да
Forced : Нет

Текст #1
Идентификатор : 3
Формат : UTF-8
Идентификатор кодека : S_TEXT/UTF8
Идентификатор кодека/Информация : UTF-8 Plain Text
Продолжительность : 1 ч. 35 м.
Битрейт : 78 бит/сек
ElementCount : 1067
Размер потока : 55,0 Кбайт (0%)
Язык : Russian
Default : Нет
Forced : Нет

Текст #2
Идентификатор : 4
Формат : UTF-8
Идентификатор кодека : S_TEXT/UTF8
Идентификатор кодека/Информация : UTF-8 Plain Text
Продолжительность : 1 ч. 35 м.
Битрейт : 45 бит/сек
ElementCount : 1090
Размер потока : 32,2 Кбайт (0%)
Язык : English
Default : Нет
Forced : Нет

Просьба к переливающим на другие сайты, в оформлении указывайте пожалуйста авторство группы R.G. HD-Films pb.wtf



Скачать Чёрная Маска через торрент http://i76.fastpic.ru/big/2016/0212/3f/8cbaba5c1002c45fe4169a1aae77093f.png Скачать фильм Чёрная Маска через торрент бесплантно в хорошем качестве Описание: Главный герой решается на отчаянный шаг. Путем сложнейшей хирургической операции он становится невосприимчив к боли. Кто он ... 10 10 8
Info! Золотая раздача, скачанное не засчитывается.
Торрент: Зарегистрирован [2020-07-04 13:56] · скачан: 72 раз
Статус: √ проверено
Размер: 4.07 GB
Как cкачать? Как скачать Чёрная Маска через торрент | qTorrent

28-11-2019 20:33  

Отключить всю рекламу на сайте

04-07-2020 15:15 Чёрная Маска Скачать торрент  

скучаю по фильмам с Джэтом Ли pb.wtf



04-07-2020 15:25 Чёрная Маска Скачать торрент  

Большая благодарность за ураганный боевик от мастеров жанра!!! У меня есть рип с блюрея в матрёшке, но там версия с другими саундтреками, а здесь всё в оригинале, родное из Гонконга. Спасибо огромное за оригинал!!! ...и уважение за труды!!!pb.wtf



04-07-2020 15:43 Чёрная Маска Скачать торрент  

Пожалуйста. Следующий "Бомба замедленного действия".pb.wtf



04-07-2020 16:14 Чёрная Маска Скачать торрент  

Премного благодарен.pb.wtf



04-07-2020 16:50 Чёрная Маска Скачать торрент  

Нет слов!!!!!!!!!!!!! Спасибище!!!!!!!!!! pb.wtf



04-07-2020 19:28 Чёрная Маска Скачать торрент  

Спасибо, что не забываешь фильмы 90-х. pb.wtf



05-07-2020 06:11 Чёрная Маска Скачать торрент  

Спасибо. С меня золото pb.wtf



05-07-2020 14:38 Чёрная Маска Скачать торрент  

anton75 писал(а):

Спасибо. С меня золото

И от меня Спасибо.pb.wtf



    Дорогой пользователь! Огромная просьба, поблагодарите релизера, оцените раздачу и оставьте свои комментарий, если Вы скачали Чёрная Маска через торрент бесплатно! Внесите свою лепту в развитие PiratBit!
    Комментировать посты могут только пользователи прошедшие не сложную регистрацию
    Показать сообщения:    

    Чёрная Маска через торрент
    Скачать бесплатно Чёрная Маска
    Чёрная Маска скачать торрент
    Чёрная Маска смотреть онлайн
    Cкачать фильм Чёрная Маска бесплатно
    Чёрная Маска скачать торрент в хорошем качестве
    Чёрная Маска смотреть онлайн бесплатно в хорошем качестве


    Вы не можете начинать темы
    Вы не можете отвечать на сообщения
    Вы не можете редактировать свои сообщения
    Вы не можете удалять свои сообщения
    Вы не можете голосовать в опросах
    Вы не можете прикреплять файлы к сообщениям
    Вы можете скачивать файлы