Ссылка на приватное зеркало всего за 1$. Внимание количество ограничено!!!

iTunes

iTunes

iTunes

1

iTunes

iTunes

iTunes

WEBRip

iTunes

30
pack

$ от Little Big

ВАЖНО

!!Акция!!

Alien_RageХит недели

RePack

Resident Evil 21

ИГРА 18+

pack

RePack

jed

!!Акция!!

Alien_Rage

RePack

fifa19

RePack

Assassins Creed: Odyssey

RePack

NEED FOR SPEED™ PAYBACK

4 сезон

9 сезон

Бесстыжие 9 сезон

Все сериалы

все сериалы на PB.wtf

RePack

FAR CRY 5
  

Бомба замедленного действия / Успеть вспомнить / Timebomb (Ави Нешер) [1991 г., фантастика, боевик, триллер, драма, BDRip 720p / 60 FPS, Профессиональный (многоголосый)] от R.G. HD-Films pb.wtf

Бомба замедленного действия через торрент pb.wtf

Размер: 3.78 GB | Добавлен: 1 мес. 4 д. назад | Торрент скачан:24 раза
Скачать  

04-07-2020 16:42 Бомба замедленного действия Скачать торрент  

Бомба замедленного действия / Успеть вспомнить / Timebomb
Год выпуска: 1991
Страна: США
Жанр: фантастика, боевик, триллер, драма
Продолжительность: 01:36:08
Перевод: Профессиональный (многоголосый)
Субтитры: English

Режиссер: Ави Нешер

Бюджет: $6 000 000
Премьера в мире: 25 мая 1991

rating

В ролях: Майкл Бин, Пэтси Кензит, Трэйси Скоггинс, Роберт Калп, Ричард Джордан, Рэймонд Сейнт-Жак, Билли Блэнкс, Джим Маниачи

Описание: Главный герой фильма — Эдди Кей. Некоторое время он имел дело с государственными органами Америки и имел доступ к некоторым военным тайнам. Этот человек попадает в катастрофу, частично теряет память, и его мучают кошмары. Тогда он обращается за помощью к психиатру Анне Нолмар. Вначале женщина думает что он сумасшедший, но его опасения имеют реальную основу. Вдвоём они пытаются противостоять угрозе и восстановить память Эдди.

Качество: BDRip 720p / 60 FPS
Формат: MKV
Видео кодек: H.264
Аудио кодек: AC3
Видео: x264, 1280 x 688 ( 1,85:1 ), 5445 kbps, 60,000 fps, ( 0.103 bpp)
Аудио#1: Русский, AC-3, 48.0 KHz, 2 ch, 192 Kbps MVO ( СВ-кадр по заказу ТВ6 )
Релиз от:

скриншот   скриншот   скриншот   скриншот   скриншот   скриншот  Автор рипа: slaventi-69
x264 [info]: frame I:1359 Avg QP:17.23 size: 80972
x264 [info]: frame P:78385 Avg QP:18.08 size: 25261
x264 [info]: frame B:265992 Avg QP:20.31 size: 6886
x264 [info]: consecutive B-frames: 1.5% 2.0% 7.3% 12.3% 66.3% 10.5%

Общее
Уникальный идентификатор : 214714200724790439174959991100678469371 (0xA188736BF605E4ECBA9791135FD1F6FB)
Полное имя : F:\Timebomb.(1991).BDRip.720p.(60 Fps).mkv
Формат : Matroska
Версия формата : Version 4
Размер файла : 3,78 Гбайт
Продолжительность : 1 ч. 36 м.
Общий поток : 5639 Кбит/сек
Название фильма : Бомба замедленного действия / Успеть вспомнить / Timebomb (1991) BDRip 720p (60 Fps)
Дата кодирования : UTC 2020-07-04 14:48:38
Программа кодирования : mkvmerge v12.0.0 ('Trust / Lust') 64bit
Библиотека кодирования : libebml v1.3.4 + libmatroska v1.4.5

Видео
Идентификатор : 1
Формат : AVC
Формат/Информация : Advanced Video Codec
Профиль формата : High@L4.1
Настройки формата : CABAC / 8 Ref Frames
Параметр CABAC формата : Да
Параметр RefFrames формата : 8 кадров
Идентификатор кодека : V_MPEG4/ISO/AVC
Продолжительность : 1 ч. 36 м.
Битрейт : 5445 Кбит/сек
Ширина : 1280 пикселей
Высота : 688 пикселей
Соотношение сторон : 1,85:1
Режим частоты кадров : Постоянный
Частота кадров : 60,000 кадров/сек
Цветовое пространство : YUV
Субдискретизация насыщенности : 4:2:0
Битовая глубина : 8 бит
Тип развёртки : Прогрессивная
Бит/(Пиксели*Кадры) : 0.103
Размер потока : 3,65 Гбайт (97%)
Заголовок : slaventi-69 ( R.G. HD-Films | 60 fps )
Библиотека кодирования : x264 core 130 r2273 b3065e6
Настройки программы : cabac=1 / ref=8 / deblock=1:-1:-1 / analyse=0x3:0x113 / me=umh / subme=9 / psy=1 / psy_rd=1.00:0.00 / mixed_ref=1 / me_range=28 / chroma_me=1 / trellis=2 / 8x8dct=1 / cqm=0 / deadzone=21,11 / fast_pskip=0 / chroma_qp_offset=-2 / threads=4 / lookahead_threads=2 / sliced_threads=0 / nr=0 / decimate=1 / interlaced=0 / bluray_compat=0 / constrained_intra=0 / bframes=5 / b_pyramid=2 / b_adapt=2 / b_bias=0 / direct=3 / weightb=1 / open_gop=0 / weightp=2 / keyint=600 / keyint_min=23 / scenecut=40 / intra_refresh=0 / rc=crf / mbtree=0 / crf=17.3 / qcomp=0.60 / qpmin=0 / qpmax=69 / qpstep=4 / ip_ratio=1.40 / pb_ratio=1.30 / aq=1:1.00
Язык : English
Default : Да
Forced : Нет

Аудио
Идентификатор : 2
Формат : AC-3
Формат/Информация : Audio Coding 3
Коммерческое название : Dolby Digital
Идентификатор кодека : A_AC3
Продолжительность : 1 ч. 36 м.
Вид битрейта : Постоянный
Битрейт : 192 Кбит/сек
Каналы : 2 канала
Channel layout : L R
Частота : 48,0 КГц
Частота кадров : 31,250 кадров/сек (1536 SPF)
Битовая глубина : 16 бит
Метод сжатия : С потерями
Размер потока : 132 Мбайт (3%)
Заголовок : MVO, СВ-кадр по заказу ТВ6
Язык : Russian
ServiceKind/String : Complete Main
Default : Да
Forced : Нет

Текст #1
Идентификатор : 3
Формат : UTF-8
Идентификатор кодека : S_TEXT/UTF8
Идентификатор кодека/Информация : UTF-8 Plain Text
Продолжительность : 1 ч. 33 м.
Битрейт : 43 бит/сек
ElementCount : 1023
Размер потока : 30,0 Кбайт (0%)
Заголовок : Full
Язык : English
Default : Нет
Forced : Нет

Текст #2
Идентификатор : 4
Формат : UTF-8
Идентификатор кодека : S_TEXT/UTF8
Идентификатор кодека/Информация : UTF-8 Plain Text
Продолжительность : 1 ч. 36 м.
Битрейт : 50 бит/сек
ElementCount : 1316
Размер потока : 35,4 Кбайт (0%)
Заголовок : SDH
Язык : English
Default : Нет
Forced : Нет

Меню
00:00:00.000 : :Chapter 01
00:08:25.671 : :Chapter 02
00:15:08.824 : :Chapter 03
00:23:36.080 : :Chapter 04
00:32:49.676 : :Chapter 05
00:42:32.091 : :Chapter 06
00:50:19.933 : :Chapter 07
00:59:40.368 : :Chapter 08
01:07:30.755 : :Chapter 09
01:14:33.135 : :Chapter 10
01:21:40.770 : :Chapter 11
01:32:14.779 : :Chapter 12
01:36:06.677 : :Chapter 13

Просьба к переливающим на другие сайты, в оформлении указывайте пожалуйста авторство группы R.G. HD-Films pb.wtf



Скачать Бомба замедленного действия через торрент http://s019.radikal.ru/i615/1708/b3/d3a1fbb50a83.jpg Скачать фильм Бомба замедленного действия через торрент бесплантно в хорошем качестве Описание: Главный герой фильма — Эдди Кей. Некоторое время он имел дело с государственными органами Америки и имел доступ к некоторым ... 10 10 4
Торрент: Зарегистрирован [2020-07-04 16:42] · скачан: 24 раз
Статус: √ проверено
Размер: 3.78 GB
Как cкачать? Как скачать Бомба замедленного действия через торрент | qTorrent

28-11-2019 20:33  

Отключить всю рекламу на сайте

04-07-2020 19:42 Бомба замедленного действия Скачать торрент  

Огромная Вам благодарность за очередной крепкий боевичок из 90-х!!! Спасибо большое за Ваш нелегкий труд в исполнении моего заказа. Всё таки, как не крути, теперь так уже не снимают. Вот именно по этому мы и будем в который раз смотреть старый добрый экшн, а мультики пущай детвора смотрить. Благодарю душевно.pb.wtf



    Дорогой пользователь! Огромная просьба, поблагодарите релизера, оцените раздачу и оставьте свои комментарий, если Вы скачали Бомба замедленного действия через торрент бесплатно! Внесите свою лепту в развитие PiratBit!
    Комментировать посты могут только пользователи прошедшие не сложную регистрацию
    Показать сообщения:    

    Бомба замедленного действия через торрент
    Скачать бесплатно Бомба замедленного действия
    Бомба замедленного действия скачать торрент
    Бомба замедленного действия смотреть онлайн
    Cкачать фильм Бомба замедленного действия бесплатно
    Бомба замедленного действия скачать торрент в хорошем качестве
    Бомба замедленного действия смотреть онлайн бесплатно в хорошем качестве


    Вы не можете начинать темы
    Вы не можете отвечать на сообщения
    Вы не можете редактировать свои сообщения
    Вы не можете удалять свои сообщения
    Вы не можете голосовать в опросах
    Вы не можете прикреплять файлы к сообщениям
    Вы можете скачивать файлы