Ссылка на приватное зеркало всего за 1$. Внимание количество ограничено!!!

iTunes

iTunes

iTunes

1

iTunes

iTunes

iTunes

WEBRip

iTunes

30
pack

$ от Little Big

ВАЖНО

!!Акция!!

Alien_RageХит недели

RePack

Resident Evil 21

ИГРА 18+

pack

RePack

jed

!!Акция!!

Alien_Rage

RePack

fifa19

RePack

Assassins Creed: Odyssey

RePack

NEED FOR SPEED™ PAYBACK

4 сезон

9 сезон

Бесстыжие 9 сезон

Все сериалы

все сериалы на PB.wtf

RePack

FAR CRY 5
  

Карьер / The Quarry (Скотт Тимс) [2020, Триллер, криминал, детектив, BDRip 1080p] MVO [Mallorn] pb.wtf

Карьер через торрент pb.wtf

Раздают: 4 [ 0 KB/s ]
Размер: 10.16 GB | Добавлен: 1 мес. 3 д. назад | Торрент скачан:60 раз
Скачать  

04-07-2020 17:23 Карьер Скачать торрент  

Карьер | The Quarry
Год выпуска: 2020
Страна: США
Студия: EFC Films, Metalwork Pictures, Prowess Pictures
Жанр: Триллер, криминал, детектив
Продолжительность: 01:43:01
Перевод: Любительский (многоголосый) | Mallorn
Субтитры: Русские, английские

Режиссер: Скотт Тимс

rating


В ролях: Ши Уигхэм, Майкл Шеннон, Каталина Сандино Морено, Бобби Сото, Бруно Бичир, Альваро Мартинес, Джимми Гонсалес, Абель Бесерра, Энтони Рейнольдс, Роуз Бьянко

Описание: Таинственный мужчина с темным прошлым находит убежище в глубинке Техаса. Он представляется новым пастором и быстро сплачивает вокруг себя прихожан, проникшихся его необычными проповедями. Одновременно его личностью заинтересовывается и начальник местной полиции, имеющий основания для подозрений.

Качество: BDRip 1080p
Формат: MKV

Видео: MPEG-4 AVC, ~ 12800 Кбит/с, 1920x800
Аудио#1: Русский (AC3, 6 ch, 640 Кбит/с) - Любительский многоголосый (Mallorn Studio)
Аудио#2: Английский (AC3, 6 ch, 640 Кбит/с) - Оригинал

Общее
Уникальный идентификатор : 244197178249668040105691818390370491380 (0xB7B6AA7162194BC0B1DF79E3D4219BF4)
Полное имя : G:\Хранимые раздачи BDRip (1080p, 720p)\Karer.2020.BDRip.(1080p).Agentx.mkv
Формат : Matroska
Версия формата : Version 4 / Version 2
Размер файла : 10,2 Гбайт
Продолжительность : 1 ч. 43 м.
Общий поток : 14,1 Мбит/сек
Название фильма : Karer.2020.BDRip.(720p).Agentx
Дата кодирования : UTC 2020-07-04 12:48:02
Программа кодирования : mkvmerge v8.3.0 ('Over the Horizon') 64bit
Библиотека кодирования : libebml v1.3.1 + libmatroska v1.4.2

Видео
Идентификатор : 1
Формат : AVC
Формат/Информация : Advanced Video Codec
Профиль формата : High@L4.1
Настройки формата : CABAC / 5 Ref Frames
Параметр CABAC формата : Да
Параметр RefFrames формата : 5 кадров
Идентификатор кодека : V_MPEG4/ISO/AVC
Продолжительность : 1 ч. 43 м.
Битрейт : 12,8 Мбит/сек
Ширина : 1920 пикселей
Высота : 800 пикселей
Соотношение сторон : 2,40:1
Режим частоты кадров : Постоянный
Частота кадров : 23,976 (24000/1001) кадра/сек
Цветовое пространство : YUV
Субдискретизация насыщенности : 4:2:0
Битовая глубина : 8 бит
Тип развёртки : Прогрессивная
Бит/(Пиксели*Кадры) : 0.348
Размер потока : 9,23 Гбайт (91%)
Заголовок : Karer.2020.BDRip.(720p).Agentx
Библиотека кодирования : x264 core 160 r3000 33f9e14
Настройки программы : cabac=1 / ref=5 / deblock=1:-3:-3 / analyse=0x3:0x133 / me=umh / subme=9 / psy=1 / psy_rd=1.00:0.00 / mixed_ref=1 / me_range=16 / chroma_me=1 / trellis=2 / 8x8dct=1 / cqm=0 / deadzone=21,11 / fast_pskip=0 / chroma_qp_offset=-2 / threads=16 / lookahead_threads=2 / sliced_threads=0 / nr=0 / decimate=0 / interlaced=0 / bluray_compat=0 / constrained_intra=0 / bframes=8 / b_pyramid=2 / b_adapt=2 / b_bias=0 / direct=3 / weightb=1 / open_gop=0 / weightp=2 / keyint=250 / keyint_min=23 / scenecut=40 / intra_refresh=0 / rc=crf / mbtree=0 / crf=18.8 / qcomp=0.60 / qpmin=0 / qpmax=69 / qpstep=4 / ip_ratio=1.40 / pb_ratio=1.30 / aq=3:0.70
Default : Да
Forced : Нет
Цветовой диапазон : Limited
Коэффициенты матрицы : BT.709

Аудио #1
Идентификатор : 2
Формат : AC-3
Формат/Информация : Audio Coding 3
Идентификатор кодека : A_AC3
Продолжительность : 1 ч. 43 м.
Вид битрейта : Постоянный
Битрейт : 640 Кбит/сек
Каналы : 6 каналов
Расположение каналов : Front: L C R, Side: L R, LFE
Частота : 48,0 КГц
Частота кадров : 31,250 кадров/сек (1536 SPF)
Битовая глубина : 16 бит
Метод сжатия : С потерями
Размер потока : 472 Мбайт (5%)
Заголовок : Многоголосый (Mallorn)
Язык : Russian
ServiceKind/String : Complete Main
Default : Да
Forced : Нет

Аудио #2
Идентификатор : 3
Формат : AC-3
Формат/Информация : Audio Coding 3
Идентификатор кодека : A_AC3
Продолжительность : 1 ч. 43 м.
Вид битрейта : Постоянный
Битрейт : 640 Кбит/сек
Каналы : 6 каналов
Расположение каналов : Front: L C R, Side: L R, LFE
Частота : 48,0 КГц
Частота кадров : 31,250 кадров/сек (1536 SPF)
Битовая глубина : 16 бит
Метод сжатия : С потерями
Размер потока : 472 Мбайт (5%)
Язык : English
ServiceKind/String : Complete Main
Default : Нет
Forced : Нет

Текст #1
Идентификатор : 4
Формат : UTF-8
Идентификатор кодека : S_TEXT/UTF8
Идентификатор кодека/Информация : UTF-8 Plain Text
Продолжительность : 1 ч. 32 м.
Битрейт : 2 бит/сек
ElementCount : 89
Размер потока : 1,89 Кбайт (0%)
Заголовок : Forced
Язык : English
Default : Да
Forced : Да

Текст #2
Идентификатор : 5
Формат : UTF-8
Идентификатор кодека : S_TEXT/UTF8
Идентификатор кодека/Информация : UTF-8 Plain Text
Продолжительность : 1 ч. 34 м.
Битрейт : 48 бит/сек
ElementCount : 763
Размер потока : 33,4 Кбайт (0%)
Язык : Russian
Default : Нет
Forced : Нет

Текст #3
Идентификатор : 6
Формат : UTF-8
Идентификатор кодека : S_TEXT/UTF8
Идентификатор кодека/Информация : UTF-8 Plain Text
Продолжительность : 1 ч. 38 м.
Битрейт : 27 бит/сек
ElementCount : 733
Размер потока : 20,0 Кбайт (0%)
Язык : English
Default : Нет
Forced : Нет

Текст #4
Идентификатор : 7
Формат : UTF-8
Идентификатор кодека : S_TEXT/UTF8
Идентификатор кодека/Информация : UTF-8 Plain Text
Продолжительность : 1 ч. 40 м.
Битрейт : 31 бит/сек
ElementCount : 917
Размер потока : 23,2 Кбайт (0%)
Язык : English
Default : Нет
Forced : Нет

Текст #5
Идентификатор : 8
Формат : PGS
Режим смешивания : zlib
Идентификатор кодека : S_HDMV/PGS
Идентификатор кодека/Информация : Picture based subtitle format used on BDs/HD-DVDs
Продолжительность : 1 ч. 40 м.
Битрейт : 11,1 Кбит/сек
ElementCount : 1936
Размер потока : 8,02 Мбайт (0%)
Язык : English
Default : Нет
Forced : Нет

Текст #6
Идентификатор : 9
Формат : PGS
Режим смешивания : zlib
Идентификатор кодека : S_HDMV/PGS
Идентификатор кодека/Информация : Picture based subtitle format used on BDs/HD-DVDs
Продолжительность : 1 ч. 32 м.
Битрейт : 919 бит/сек
ElementCount : 178
Размер потока : 621 Кбайт (0%)
Язык : English
Default : Нет
Forced : Нет

Меню
00:00:00.000 : en:Chapter 01
00:06:51.995 : en:Chapter 02
00:14:59.398 : en:Chapter 03
00:20:30.438 : en:Chapter 04
00:26:28.086 : en:Chapter 05
00:32:04.631 : en:Chapter 06
00:39:41.337 : en:Chapter 07
00:44:08.813 : en:Chapter 08
00:51:33.841 : en:Chapter 09
00:56:33.724 : en:Chapter 10
01:02:27.827 : en:Chapter 11
01:09:52.605 : en:Chapter 12
01:17:52.167 : en:Chapter 13
01:23:27.502 : en:Chapter 14
01:27:47.095 : en:Chapter 15
01:36:22.777 : en:Chapter 16

pb.wtf



Скачать Карьер через торрент http://c.radikal.ru/c30/2004/d5/6e43dbd205d3.jpg Скачать фильм Карьер через торрент бесплантно в хорошем качестве Описание: Таинственный мужчина с темным прошлым находит убежище в глубинке Техаса. Он представляется новым пастором и быстро сплачивает ... 9.4 10 5
Торрент: Зарегистрирован [2020-07-04 17:23] · скачан: 60 раз
Статус: T временная
Размер: 10.16 GB
Как cкачать? Как скачать Карьер через торрент | qTorrent

% Раздел Тема Автор DL S | L
T Фильмы 2019-2020 [DVDrip, WEB-DLRip, HDrip] (DUB, MVO) [ 1.46 GB ] Карьер / The Quarry [2020 BDRip] MVO [Mallorn] bober100 Скачать
11 | 0
T Фильмы [HD 720p, 1080p] (Хороший звук DUB, MVO) [ 5.4 GB ] Карьер / The Quarry [2020 BDRip 720p] MVO [Mallorn] bober100 Скачать
2 | 0
T Фильмы 2019-2020 [DVDrip, WEB-DLRip, HDrip] (DUB, MVO) [ 2.26 GB ] Карьер / The Quarry [2020 WEB-DLRip-AVC] [MVO] killermax2013 Скачать
5 | 0

28-11-2019 20:33  

Отключить всю рекламу на сайте

    Дорогой пользователь! Огромная просьба, поблагодарите релизера, оцените раздачу и оставьте свои комментарий, если Вы скачали Карьер через торрент бесплатно! Внесите свою лепту в развитие PiratBit!
    Комментировать посты могут только пользователи прошедшие не сложную регистрацию
    Показать сообщения:    

    Карьер через торрент
    Скачать бесплатно Карьер
    Карьер скачать торрент
    Карьер смотреть онлайн
    Cкачать фильм Карьер бесплатно
    Карьер скачать торрент в хорошем качестве
    Карьер смотреть онлайн бесплатно в хорошем качестве


    Вы не можете начинать темы
    Вы не можете отвечать на сообщения
    Вы не можете редактировать свои сообщения
    Вы не можете удалять свои сообщения
    Вы не можете голосовать в опросах
    Вы не можете прикреплять файлы к сообщениям
    Вы можете скачивать файлы