Ссылка на приватное зеркало всего за 1$. Внимание количество ограничено!!!

iTunes

iTunes

iTunes

1

iTunes

iTunes

iTunes

WEBRip

iTunes

30
pack

$ от Little Big

ВАЖНО

!!Акция!!

Alien_RageХит недели

RePack

Resident Evil 21

ИГРА 18+

pack

RePack

jed

!!Акция!!

Alien_Rage

RePack

fifa19

RePack

Assassins Creed: Odyssey

RePack

NEED FOR SPEED™ PAYBACK

4 сезон

9 сезон

Бесстыжие 9 сезон

Все сериалы

все сериалы на PB.wtf

RePack

FAR CRY 5
  

Кунг Фьюри / Кунг Фурор / Кунг Фури / Kung Fury (Дэвид Сандберг) [2015, короткометражка, фантастика, боевик, комедия, WEBRip 1080p] 3x[MVO[ + 2x[DVO] + 2x[AVO] (Пучков, Володарский) + 14x[VO] pb.wtf

Кунг Фьюри через торрент pb.wtf

Раздают: 5 [ 0 KB/s ]
Размер: 2.35 GB | Добавлен: 1 мес. 4 д. назад | Торрент скачан:107 раз
Скачать  

04-07-2020 17:34 Кунг Фьюри Скачать торрент  


Кунг Фьюри / Kung Fury
Год выпуска: 2015
Страна: Швеция
Жанр: короткометражка, фантастика, боевик, комедия
Продолжительность: 00:30:20
Перевод 1: Профессиональный (многоголосый закадровый) Jaskier
Перевод 2: Профессиональный (многоголосый закадровый) Петр "Гланц" Иващенко, Александр Дасевич и другие
Перевод 3: Любительский (многоголосый закадровый) OMSKBIRD records
Перевод 4: Профессиональный (двухголосый закадровый) Ozz Tv
Перевод 5: Любительский (двухголосый закадровый) Ellgin, Мтрск
Перевод 6: Авторский (одноголосый закадровый) Дмитрий "Гоблин" Пучков
Перевод 7: Авторский (одноголосый закадровый) Леонид Володарский
Перевод 8: Авторский (одноголосый закадровый) Алексей "Doctor Joker" Матвеев - под Володарского
Перевод 9: Одноголосый закадровый Алексей "Doctor Joker" Матвеев
Перевод 10: Одноголосый закадровый Антон Игнатьев
Перевод 11: Одноголосый закадровый Андрей Зверев
Перевод 12: Одноголосый закадровый Дмитрий Маслов
Перевод 13: Одноголосый закадровый Евгений Прохоров
Перевод 14: Одноголосый закадровый Данис Нурмухаметов
Перевод 15: Одноголосый закадровый Причудики
Перевод 16: Одноголосый закадровый Agent Diego - Doublezett Studio
Перевод 17: Одноголосый закадровый Renghar
Перевод 18: Одноголосый закадровый Lexsey
Перевод 19: Одноголосый закадровый Dankwist
Перевод 20: Одноголосый закадровый под VHS v1
Перевод 21: Одноголосый закадровый под VHS v2

Субтитры: русские, английские
Режиссер: Дэвид Сандберг / David Sandberg

В ролях: Дэвид Сандберг, Йорма Такконе, Леопольд Нильссон, Стивен Чю, Андреас Кахлинг, Эрик Хёрнквист, Элени Янг, Хелен Алсон, Пер-Хенрик Арвидус, Эос Карлссон
Описание: В Майами 80-х появляется самый опасный преступник всех времен — Адольф Гитлер, по прозвищу Кунг Фюрер. Суперкоп Кунг Фьюри решает совершить путешествие во времени в нацистскую Германию, чтобы убить Гитлера и положить конец нацистской империи.


Тип релиза: WEBRip 1080p
Контейнер: MKV

Видео: 1920x1080 at 25.000 fps, x264, 6832 kbps avg, 0.132 b/pixel
Аудио 1-21: Russian Dolby Digital Audio 2.0 / 48 kHz / 192 kbps
Аудио 22: English Dolby Digital Audio 2.0 / 48 kHz / 192 kbps
Формат субтитров: softsub (SRT)
General
Unique ID : 244040129979257065599620727602618445393 (0xB7986B5D87F25A3C81C9BD658AF62E51)
Complete name : V:\Фильмы\Кунг Фьюри (2015. Kung Fury).mkv
Format : Matroska
Format version : Version 4 / Version 2
File size : 2.35 GiB
Duration : 31mn 12s
Overall bit rate : 10.8 Mbps
Movie name : Release for RuTracker
Encoded date : UTC 2016-04-07 23:13:02
Writing application : mkvmerge v9.0.1 ('Obstacles') 64bit
Writing library : libebml v1.3.3 + libmatroska v1.4.4
Cover : Yes
Attachments : Cover.jpg

Video
ID : 1
Format : AVC
Format/Info : Advanced Video Codec
Format profile : High@L5
Format settings, CABAC : Yes
Format settings, ReFrames : 8 frames
Format settings, GOP : N=1
Codec ID : V_MPEG4/ISO/AVC
Duration : 30mn 20s
Bit rate : 6 832 Kbps
Width : 1 920 pixels
Height : 1 080 pixels
Display aspect ratio : 16:9
Frame rate mode : Constant
Frame rate : 25.000 fps
Color space : YUV
Chroma subsampling : 4:2:0
Bit depth : 8 bits
Scan type : Progressive
Bits/(Pixel*Frame) : 0.132
Stream size : 1.45 GiB (62%)
Title : KUNG_FURY_WEB_DL_1080p
Writing library : Zencoder Video Encoding System
Language : English
Default : Yes
Forced : No
Color range : Limited
Color primaries : BT.709
Transfer characteristics : BT.709
Matrix coefficients : BT.709

Audio #1
ID : 2
Format : AC-3
Format/Info : Audio Coding 3
Mode extension : CM (complete main)
Format settings, Endianness : Big
Codec ID : A_AC3
Duration : 30mn 20s
Bit rate mode : Constant
Bit rate : 192 Kbps
Channel(s) : 2 channels
Channel positions : Front: L R
Sampling rate : 48.0 KHz
Frame rate : 31.250 fps (1536 spf)
Compression mode : Lossy
Stream size : 41.7 MiB (2%)
Title : MVO [Jaskier]
Language : Russian
Default : Yes
Forced : No

Audio #2
ID : 3
Format : AC-3
Format/Info : Audio Coding 3
Mode extension : CM (complete main)
Format settings, Endianness : Big
Codec ID : A_AC3
Duration : 30mn 20s
Bit rate mode : Constant
Bit rate : 192 Kbps
Channel(s) : 2 channels
Channel positions : Front: L R
Sampling rate : 48.0 KHz
Frame rate : 31.250 fps (1536 spf)
Compression mode : Lossy
Stream size : 41.7 MiB (2%)
Title : MVO [Петр "Гланц" Иващенко, Александр Дасевич и другие]
Language : Russian
Default : No
Forced : No

Audio #3
ID : 4
Format : AC-3
Format/Info : Audio Coding 3
Mode extension : CM (complete main)
Format settings, Endianness : Big
Codec ID : A_AC3
Duration : 30mn 20s
Bit rate mode : Constant
Bit rate : 192 Kbps
Channel(s) : 2 channels
Channel positions : Front: L R
Sampling rate : 48.0 KHz
Frame rate : 31.250 fps (1536 spf)
Compression mode : Lossy
Stream size : 41.7 MiB (2%)
Title : MVO [OMSKBIRD records]
Language : Russian
Default : No
Forced : No

Audio #4
ID : 5
Format : AC-3
Format/Info : Audio Coding 3
Mode extension : CM (complete main)
Format settings, Endianness : Big
Codec ID : A_AC3
Duration : 30mn 20s
Bit rate mode : Constant
Bit rate : 192 Kbps
Channel(s) : 2 channels
Channel positions : Front: L R
Sampling rate : 48.0 KHz
Frame rate : 31.250 fps (1536 spf)
Compression mode : Lossy
Stream size : 41.7 MiB (2%)
Title : DVO [Ozz Tv]
Language : Russian
Default : No
Forced : No

Audio #5
ID : 6
Format : AC-3
Format/Info : Audio Coding 3
Mode extension : CM (complete main)
Format settings, Endianness : Big
Codec ID : A_AC3
Duration : 31mn 12s
Bit rate mode : Constant
Bit rate : 192 Kbps
Channel(s) : 2 channels
Channel positions : Front: L R
Sampling rate : 48.0 KHz
Frame rate : 31.250 fps (1536 spf)
Compression mode : Lossy
Stream size : 42.9 MiB (2%)
Title : DVO [Ellgin, Мтрск]
Language : Russian
Default : No
Forced : No

Audio #6
ID : 7
Format : AC-3
Format/Info : Audio Coding 3
Mode extension : CM (complete main)
Format settings, Endianness : Big
Codec ID : A_AC3
Duration : 30mn 11s
Bit rate mode : Constant
Bit rate : 192 Kbps
Channel(s) : 2 channels
Channel positions : Front: L R
Sampling rate : 48.0 KHz
Frame rate : 31.250 fps (1536 spf)
Compression mode : Lossy
Stream size : 41.5 MiB (2%)
Title : Дмитрий "Гоблин" Пучков
Language : Russian
Default : No
Forced : No

Audio #7
ID : 8
Format : AC-3
Format/Info : Audio Coding 3
Mode extension : CM (complete main)
Format settings, Endianness : Big
Codec ID : A_AC3
Duration : 30mn 20s
Bit rate mode : Constant
Bit rate : 192 Kbps
Channel(s) : 2 channels
Channel positions : Front: L R
Sampling rate : 48.0 KHz
Frame rate : 31.250 fps (1536 spf)
Compression mode : Lossy
Stream size : 41.7 MiB (2%)
Title : Леонид Володарский
Language : Russian
Default : No
Forced : No

Audio #8
ID : 9
Format : AC-3
Format/Info : Audio Coding 3
Mode extension : CM (complete main)
Format settings, Endianness : Big
Codec ID : A_AC3
Duration : 30mn 20s
Bit rate mode : Constant
Bit rate : 192 Kbps
Channel(s) : 2 channels
Channel positions : Front: L R
Sampling rate : 48.0 KHz
Frame rate : 31.250 fps (1536 spf)
Compression mode : Lossy
Stream size : 41.7 MiB (2%)
Title : Алексей "Doctor Joker" Матвеев - под Володарского
Language : Russian
Default : No
Forced : No

Audio #9
ID : 10
Format : AC-3
Format/Info : Audio Coding 3
Mode extension : CM (complete main)
Format settings, Endianness : Big
Codec ID : A_AC3
Duration : 30mn 20s
Bit rate mode : Constant
Bit rate : 192 Kbps
Channel(s) : 2 channels
Channel positions : Front: L R
Sampling rate : 48.0 KHz
Frame rate : 31.250 fps (1536 spf)
Compression mode : Lossy
Stream size : 41.7 MiB (2%)
Title : Алексей "Doctor Joker" Матвеев
Language : Russian
Default : No
Forced : No

Audio #10
ID : 11
Format : AC-3
Format/Info : Audio Coding 3
Mode extension : CM (complete main)
Format settings, Endianness : Big
Codec ID : A_AC3
Duration : 31mn 6s
Bit rate mode : Constant
Bit rate : 192 Kbps
Channel(s) : 2 channels
Channel positions : Front: L R
Sampling rate : 48.0 KHz
Frame rate : 31.250 fps (1536 spf)
Compression mode : Lossy
Stream size : 42.7 MiB (2%)
Title : Антон Игнатьев
Language : Russian
Default : No
Forced : No

Audio #11
ID : 12
Format : AC-3
Format/Info : Audio Coding 3
Mode extension : CM (complete main)
Format settings, Endianness : Big
Codec ID : A_AC3
Duration : 31mn 6s
Bit rate mode : Constant
Bit rate : 192 Kbps
Channel(s) : 2 channels
Channel positions : Front: L R
Sampling rate : 48.0 KHz
Frame rate : 31.250 fps (1536 spf)
Compression mode : Lossy
Stream size : 42.7 MiB (2%)
Title : Андрей Зверев
Language : Russian
Default : No
Forced : No

Audio #12
ID : 13
Format : AC-3
Format/Info : Audio Coding 3
Mode extension : CM (complete main)
Format settings, Endianness : Big
Codec ID : A_AC3
Duration : 30mn 20s
Bit rate mode : Constant
Bit rate : 192 Kbps
Channel(s) : 2 channels
Channel positions : Front: L R
Sampling rate : 48.0 KHz
Frame rate : 31.250 fps (1536 spf)
Compression mode : Lossy
Stream size : 41.7 MiB (2%)
Title : Дмитрий Маслов
Language : Russian
Default : No
Forced : No

Audio #13
ID : 14
Format : AC-3
Format/Info : Audio Coding 3
Mode extension : CM (complete main)
Format settings, Endianness : Big
Codec ID : A_AC3
Duration : 31mn 6s
Bit rate mode : Constant
Bit rate : 192 Kbps
Channel(s) : 2 channels
Channel positions : Front: L R
Sampling rate : 48.0 KHz
Frame rate : 31.250 fps (1536 spf)
Compression mode : Lossy
Stream size : 42.7 MiB (2%)
Title : Евгений Прохоров
Language : Russian
Default : No
Forced : No

Audio #14
ID : 15
Format : AC-3
Format/Info : Audio Coding 3
Mode extension : CM (complete main)
Format settings, Endianness : Big
Codec ID : A_AC3
Duration : 31mn 6s
Bit rate mode : Constant
Bit rate : 192 Kbps
Channel(s) : 2 channels
Channel positions : Front: L R
Sampling rate : 48.0 KHz
Frame rate : 31.250 fps (1536 spf)
Compression mode : Lossy
Stream size : 42.7 MiB (2%)
Title : Данис Нурмухаметов
Language : Russian
Default : No
Forced : No

Audio #15
ID : 16
Format : AC-3
Format/Info : Audio Coding 3
Mode extension : CM (complete main)
Format settings, Endianness : Big
Codec ID : A_AC3
Duration : 31mn 8s
Bit rate mode : Constant
Bit rate : 192 Kbps
Channel(s) : 2 channels
Channel positions : Front: L R
Sampling rate : 48.0 KHz
Frame rate : 31.250 fps (1536 spf)
Compression mode : Lossy
Stream size : 42.8 MiB (2%)
Title : Причудики
Language : Russian
Default : No
Forced : No

Audio #16
ID : 17
Format : AC-3
Format/Info : Audio Coding 3
Mode extension : CM (complete main)
Format settings, Endianness : Big
Codec ID : A_AC3
Duration : 30mn 20s
Bit rate mode : Constant
Bit rate : 192 Kbps
Channel(s) : 2 channels
Channel positions : Front: L R
Sampling rate : 48.0 KHz
Frame rate : 31.250 fps (1536 spf)
Compression mode : Lossy
Stream size : 41.7 MiB (2%)
Title : Agent Diego - Doublezett Studio
Language : Russian
Default : No
Forced : No

Audio #17
ID : 18
Format : AC-3
Format/Info : Audio Coding 3
Mode extension : CM (complete main)
Format settings, Endianness : Big
Codec ID : A_AC3
Duration : 31mn 6s
Bit rate mode : Constant
Bit rate : 192 Kbps
Channel(s) : 2 channels
Channel positions : Front: L R
Sampling rate : 48.0 KHz
Frame rate : 31.250 fps (1536 spf)
Compression mode : Lossy
Stream size : 42.7 MiB (2%)
Title : Renghar
Language : Russian
Default : No
Forced : No

Audio #18
ID : 19
Format : AC-3
Format/Info : Audio Coding 3
Mode extension : CM (complete main)
Format settings, Endianness : Big
Codec ID : A_AC3
Duration : 31mn 6s
Bit rate mode : Constant
Bit rate : 192 Kbps
Channel(s) : 2 channels
Channel positions : Front: L R
Sampling rate : 48.0 KHz
Frame rate : 31.250 fps (1536 spf)
Compression mode : Lossy
Stream size : 42.7 MiB (2%)
Title : Lexsey
Language : Russian
Default : No
Forced : No

Audio #19
ID : 20
Format : AC-3
Format/Info : Audio Coding 3
Mode extension : CM (complete main)
Format settings, Endianness : Big
Codec ID : A_AC3
Duration : 30mn 20s
Bit rate mode : Constant
Bit rate : 192 Kbps
Channel(s) : 2 channels
Channel positions : Front: L R
Sampling rate : 48.0 KHz
Frame rate : 31.250 fps (1536 spf)
Compression mode : Lossy
Stream size : 41.7 MiB (2%)
Title : Dankwist
Language : Russian
Default : No
Forced : No

Audio #20
ID : 21
Format : AC-3
Format/Info : Audio Coding 3
Mode extension : CM (complete main)
Format settings, Endianness : Big
Codec ID : A_AC3
Duration : 31mn 6s
Bit rate mode : Constant
Bit rate : 192 Kbps
Channel(s) : 2 channels
Channel positions : Front: L R
Sampling rate : 48.0 KHz
Frame rate : 31.250 fps (1536 spf)
Compression mode : Lossy
Stream size : 42.7 MiB (2%)
Title : под VHS v1
Language : Russian
Default : No
Forced : No

Audio #21
ID : 22
Format : AC-3
Format/Info : Audio Coding 3
Mode extension : CM (complete main)
Format settings, Endianness : Big
Codec ID : A_AC3
Duration : 29mn 24s
Bit rate mode : Constant
Bit rate : 192 Kbps
Channel(s) : 2 channels
Channel positions : Front: L R
Sampling rate : 48.0 KHz
Frame rate : 31.250 fps (1536 spf)
Compression mode : Lossy
Stream size : 40.4 MiB (2%)
Title : под VHS v2
Language : Russian
Default : No
Forced : No

Audio #22
ID : 23
Format : AC-3
Format/Info : Audio Coding 3
Format profile : Dolby Digital
Mode extension : CM (complete main)
Format settings, Endianness : Big
Codec ID : A_AC3
Duration : 30mn 20s
Bit rate mode : Constant
Bit rate : 192 Kbps
Channel(s) : 2 channels
Channel positions : Front: L R
Sampling rate : 48.0 KHz
Frame rate : 31.250 fps (1536 spf)
Compression mode : Lossy
Stream size : 41.7 MiB (2%)
Language : English
Default : No
Forced : No

Text #1
ID : 24
Format : UTF-8
Codec ID : S_TEXT/UTF8
Codec ID/Info : UTF-8 Plain Text
Duration : 28mn 42s
Bit rate : 68 bps
Count of elements : 261
Stream size : 14.5 KiB (0%)
Language : Russian
Default : No
Forced : No

Text #2
ID : 25
Format : UTF-8
Codec ID : S_TEXT/UTF8
Codec ID/Info : UTF-8 Plain Text
Duration : 29mn 4s
Bit rate : 52 bps
Count of elements : 375
Stream size : 11.2 KiB (0%)
Language : English
Default : No
Forced : No
скриншот  скриншот  скриншот  скриншот  
pb.wtf



Скачать Кунг Фьюри через торрент http://i78.fastpic.ru/big/2016/0418/57/25f3be058e2995512f72640d08e97657.png Скачать фильм Кунг Фьюри через торрент бесплантно в хорошем качестве Описание: В Майами 80-х появляется самый опасный преступник всех времен — Адольф Гитлер, по прозвищу Кунг Фюрер. Суперкоп Кунг Фьюри решает ... 9.2 10 11
Info! Золотая раздача, скачанное не засчитывается.
Торрент: Зарегистрирован [2020-07-04 17:34] · скачан: 107 раз
Статус: √ проверено
Размер: 2.35 GB
Как cкачать? Как скачать Кунг Фьюри через торрент | qTorrent

28-11-2019 20:33  

Отключить всю рекламу на сайте

05-07-2020 17:21 Кунг Фьюри Скачать торрент  

а где перевод от WELOVEGAMES ?pb.wtf



07-07-2020 15:34 Кунг Фьюри Скачать торрент  

ох АГОНЬ фильмец!! pb.wtf



    Дорогой пользователь! Огромная просьба, поблагодарите релизера, оцените раздачу и оставьте свои комментарий, если Вы скачали Кунг Фьюри через торрент бесплатно! Внесите свою лепту в развитие PiratBit!
    Комментировать посты могут только пользователи прошедшие не сложную регистрацию
    Показать сообщения:    

    Кунг Фьюри через торрент
    Скачать бесплатно Кунг Фьюри
    Кунг Фьюри скачать торрент
    Кунг Фьюри смотреть онлайн
    Cкачать фильм Кунг Фьюри бесплатно
    Кунг Фьюри скачать торрент в хорошем качестве
    Кунг Фьюри смотреть онлайн бесплатно в хорошем качестве


    Вы не можете начинать темы
    Вы не можете отвечать на сообщения
    Вы не можете редактировать свои сообщения
    Вы не можете удалять свои сообщения
    Вы не можете голосовать в опросах
    Вы не можете прикреплять файлы к сообщениям
    Вы можете скачивать файлы