2 сезон

iTunes

MVO

1

2 сезон

iTunes

iTunes

1 сезон

RePack

30

Новинка

ВАЖНО

ИГРА 18+

pack

RePack

MK11
pack

Легкие деньги

RePack

jed

RePack

fifa19

RePack

RDR2

RePack

NEED FOR SPEED™ PAYBACK

4 сезон

9 сезон

Бесстыжие 9 сезон

Все сериалы

все сериалы на PB.wtf

RePack

FAR CRY 5

Anonymous, доброе утро, мы не успеваем собрать деньги на оплату серверов за декабрь и январь, помогите нам пожалуйста в это трудное время. В качестве благодарности мы отключим Вам всю рекламу на сайте (укажите свой ник в строку Ваше имя)!

×
  
Magnet ссылка

Тор: Рагнарёк / Thor: Ragnarok (Тайка Вайтити) [2017 г., Фантастика, фэнтези, боевик, приключения, Hybrid 720p / 60 FPS, Дубляж] (IMAX Edition) от R.G. HD-Films pb.wtf

Тор: Рагнарёк через торрент pb.wtf

Раздают: 2 [ 0 KB/s ]
Размер: 5.45 GB | Добавлен: 6 мес. назад | Торрент скачан:90 раз
Скачать  

05-07-2020 16:20 Тор: Рагнарёк Скачать торрент  

Тор: Рагнарёк / Thor: Ragnarok
Год выпуска: 2017
Страна: США
Жанр: Фантастика, фэнтези, боевик, приключения
Продолжительность: 02:10:30
Перевод: Дубляж
Субтитры: Russian, English

Режиссер: Тайка Вайтити

Бюджет: $180 000 000
Премьера в мире: 10 октября 2017

rating

В ролях: Крис Хемсворт, Том Хиддлстон, Кейт Бланшетт, Идрис Эльба, Джефф Голдблюм, Тесса Томпсон, Карл Урбан, Марк Руффало, Энтони Хопкинс, Бенедикт Камбербэтч

Описание: Вернувшись в Асгард в поисках таинственного врага, ведущего охоту на Камни Бесконечности, Тор обнаруживает, что действия его брата Локи, захватившего трон Асгарда, привели к приближению наиболее страшного события — Рагнарёка. По легенде это ознаменует последнюю битву Асгарда, последствием которой станет его полное уничтожение. В попытке предотвратить это событие Тору предстоит прибегнуть к помощи своего товарища из Мстителей — Халка. Вместе им предстоит столкнуться лицом к лицу со злейшим врагом всех девяти миров — огненным демоном Суртуром, целью которого является исполнение пророчества о Рагнарёке и уничтожение девяти миров.

Доп. информация: IMAX версия без плавающего кропа с левой стороны. Имеются короткие вставки Open Matte без черных полос. Название фильма локализовано.
Релиз: BLUEBIRD DoroshDan


Качество: Hybrid 720p / 60 FPS
Формат: MKV
Видео кодек: H.264
Аудио кодек: AC3
Видео: x264, 1280 x 720 ( 16:9 ), 5595 kbps, 60,000 fps, ( 0.101 bpp)
Аудио#1: Русский, AC-3, 48.0 KHz, 6 ch, 384 Kbps Dub
Релиз от:

скриншот   скриншот   скриншот   скриншот   скриншот   скриншот  Автор рипа: slaventi-69
x264 [info]: frame I:2648 Avg QP:16.22 size:103432
x264 [info]: frame P:118831 Avg QP:17.69 size: 24020
x264 [info]: frame B:347892 Avg QP:20.05 size: 6735
x264 [info]: consecutive B-frames: 3.8% 3.7% 9.9% 16.5% 54.4% 11.8%


Общее
Уникальный идентификатор : 196070545117162000687442487627752392929 (0x9381D03B55341CF4B109CB298D0BC8E1)
Полное имя : F:\Thor.Ragnarok.(2017).Hybrid.720p.(60 Fps).(IMAX Edition).mkv
Формат : Matroska
Версия формата : Version 4
Размер файла : 5,45 Гбайт
Продолжительность : 2 ч. 10 м.
Общий поток : 5982 Кбит/сек
Название фильма : Тор: Рагнарёк / Thor: Ragnarok (2017) Hybrid 720p (60 Fps) | IMAX Edition | Локализованная версия
Дата кодирования : UTC 2020-07-04 17:17:09
Программа кодирования : mkvmerge v12.0.0 ('Trust / Lust') 64bit
Библиотека кодирования : libebml v1.3.4 + libmatroska v1.4.5

Видео
Идентификатор : 1
Формат : AVC
Формат/Информация : Advanced Video Codec
Профиль формата : High@L4.1
Настройки формата : CABAC / 9 Ref Frames
Параметр CABAC формата : Да
Параметр RefFrames формата : 9 кадров
Идентификатор кодека : V_MPEG4/ISO/AVC
Продолжительность : 2 ч. 10 м.
Битрейт : 5595 Кбит/сек
Ширина : 1280 пикселей
Высота : 720 пикселей
Соотношение сторон : 16:9
Режим частоты кадров : Постоянный
Частота кадров : 60,000 кадров/сек
Цветовое пространство : YUV
Субдискретизация насыщенности : 4:2:0
Битовая глубина : 8 бит
Тип развёртки : Прогрессивная
Бит/(Пиксели*Кадры) : 0.101
Размер потока : 5,10 Гбайт (94%)
Заголовок : slaventi-69 ( R.G. HD-Films | 60 fps )
Библиотека кодирования : x264 core 130 r2273 b3065e6
Настройки программы : cabac=1 / ref=9 / deblock=1:-1:-1 / analyse=0x3:0x133 / me=umh / subme=9 / psy=1 / psy_rd=1.00:0.00 / mixed_ref=1 / me_range=32 / chroma_me=1 / trellis=2 / 8x8dct=1 / cqm=0 / deadzone=21,11 / fast_pskip=0 / chroma_qp_offset=-2 / threads=10 / lookahead_threads=2 / sliced_threads=0 / nr=0 / decimate=1 / interlaced=0 / bluray_compat=0 / constrained_intra=0 / bframes=5 / b_pyramid=2 / b_adapt=2 / b_bias=0 / direct=1 / weightb=1 / open_gop=0 / weightp=2 / keyint=600 / keyint_min=23 / scenecut=40 / intra_refresh=0 / rc=crf / mbtree=0 / crf=17.3 / qcomp=0.60 / qpmin=0 / qpmax=69 / qpstep=4 / ip_ratio=1.40 / pb_ratio=1.30 / aq=1:1.00
Язык : English
Default : Да
Forced : Нет

Аудио
Идентификатор : 2
Формат : AC-3
Формат/Информация : Audio Coding 3
Коммерческое название : Dolby Digital
Идентификатор кодека : A_AC3
Продолжительность : 2 ч. 10 м.
Вид битрейта : Постоянный
Битрейт : 384 Кбит/сек
Каналы : 6 каналов
Channel layout : L R C LFE Ls Rs
Частота : 48,0 КГц
Частота кадров : 31,250 кадров/сек (1536 SPF)
Битовая глубина : 16 бит
Метод сжатия : С потерями
Размер потока : 358 Мбайт (6%)
Заголовок : Dub
Язык : Russian
ServiceKind/String : Complete Main
Default : Да
Forced : Нет

Текст #1
Идентификатор : 3
Формат : UTF-8
Идентификатор кодека : S_TEXT/UTF8
Идентификатор кодека/Информация : UTF-8 Plain Text
Продолжительность : 1 ч. 56 м.
Битрейт : 0 бит/сек
ElementCount : 4
Размер потока : 216 байт (0%)
Заголовок : Forced
Язык : Russian
Default : Да
Forced : Нет

Текст #2
Идентификатор : 4
Формат : UTF-8
Идентификатор кодека : S_TEXT/UTF8
Идентификатор кодека/Информация : UTF-8 Plain Text
Продолжительность : 2 ч. 9 м.
Битрейт : 77 бит/сек
ElementCount : 1576
Размер потока : 73,5 Кбайт (0%)
Заголовок : Full
Язык : Russian
Default : Нет
Forced : Нет

Текст #3
Идентификатор : 5
Формат : UTF-8
Идентификатор кодека : S_TEXT/UTF8
Идентификатор кодека/Информация : UTF-8 Plain Text
Продолжительность : 2 ч. 9 м.
Битрейт : 49 бит/сек
ElementCount : 1564
Размер потока : 47,1 Кбайт (0%)
Язык : English
Default : Нет
Forced : Нет

Меню
00:00:00.000 : :The Great Prophecy
00:06:20.671 : :The Tragedy Of Loki Of Asgard
00:14:11.642 : :A Worthy Inclusion
00:22:12.873 : :The Goddess Of Death
00:26:43.059 : :"Are You A Fighter, Or Are You Food?"
00:31:29.721 : :Heiress Apparent
00:35:03.935 : :The Grandmaster
00:42:49.733 : :The Eternal Flame
00:48:31.533 : :The Contest Of Champions
00:59:38.783 : :The Resistance
01:07:57.907 : :Hotheaded Fools
01:17:30.604 : :The Revengers
01:27:25.323 : :"The Revolution Has Begun"
01:36:08.721 : :Ready For War
01:42:35.732 : :"Asgard Is Not A Place"
01:49:19.886 : :"What Were You The God Of Again?"
01:54:57.599 : :Ragnarok
02:00:37.521 : :End Credits

Просьба к переливающим на другие сайты, в оформлении указывайте пожалуйста авторство группы R.G. HD-Films pb.wtf



Скачать Тор: Рагнарёк через торрент https://img16.lostpic.net/2020/01/15/69dea3f85c56d7b5c8cdd31bb0717509.png Скачать фильм Тор: Рагнарёк через торрент бесплантно в хорошем качестве Описание: Вернувшись в Асгард в поисках таинственного врага, ведущего охоту на Камни Бесконечности, Тор обнаруживает, что действия его ... 10 10 9
Info! Золотая раздача, скачанное не засчитывается.
Торрент: Зарегистрирован [2020-07-05 16:20] · скачан: 90 раз
Статус: √ проверено
Размер: 5.45 GB
Как cкачать? Как скачать Тор: Рагнарёк через торрент | UTorrent

28-11-2019 20:33  

Отключить всю рекламу на сайте

05-07-2020 17:10 Тор: Рагнарёк Скачать торрент  

Раздача стала золотой благодаря:
михакруг(5000),

Спасибо за Золото.pb.wtf



    Дорогой пользователь! Огромная просьба, поблагодарите релизера, оцените раздачу и оставьте свои комментарий, если Вы скачали Тор: Рагнарёк через торрент бесплатно! Внесите свою лепту в развитие PiratBit!
    Комментировать посты могут только пользователи прошедшие не сложную регистрацию
    Показать сообщения:    

    Тор: Рагнарёк через торрент
    Скачать бесплатно Тор: Рагнарёк
    Тор: Рагнарёк скачать торрент
    Тор: Рагнарёк смотреть онлайн
    Cкачать фильм Тор: Рагнарёк бесплатно
    Тор: Рагнарёк скачать торрент в хорошем качестве
    Тор: Рагнарёк смотреть онлайн бесплатно в хорошем качестве


    Вы не можете начинать темы
    Вы не можете отвечать на сообщения
    Вы не можете редактировать свои сообщения
    Вы не можете удалять свои сообщения
    Вы не можете голосовать в опросах
    Вы не можете прикреплять файлы к сообщениям
    Вы можете скачивать файлы