Ссылка на приватное зеркало нашего сайта всего за 1$. Внимание количество ограничено!!!

2 сезон

iTunes

1 сезон

1

iTunes

iTunes

iTunes

1 сезон

RePack

30

ИГРА 18+

pack

ВАЖНО

!!Акция!!

Alien_RageХит недели

RePack

MK11
pack

Забери бонус

RePack

jed

!!Акция!!

Alien_Rage

RePack

fifa19

RePack

Assassins Creed: Odyssey

RePack

NEED FOR SPEED™ PAYBACK

4 сезон

9 сезон

Бесстыжие 9 сезон

Все сериалы

все сериалы на PB.wtf

RePack

FAR CRY 5
  

Погнали / Сезон: 1 / Серии: 1-21 из 21 (Илья Казанков, Филипп Коршунов) [2020, Комедия, приключения, ситком, WEB-DLRip] pb.wtf

Погнали через торрент pb.wtf

Раздают: 2 [ 0 KB/s ]
Размер: 7.18 GB | Добавлен: 2 мес. 29 д. назад | Торрент скачан:41 раз
Скачать  

06-07-2020 10:32 Погнали Скачать торрент  

Погнали
Год выпуска: 2020
Страна: Россия
Выпущено: Россия, «Art Pictures Vision» при участии «Varvar Studio» по заказу телеканала СТС
Жанр: Комедия, приключения, ситком
Продолжительность: ~ 00:25:00
Субтитры: отсутствуют

Режиссер: Илья Казанков, Филипп Коршунов



В ролях: Ольга Медынич, Михаил Трухин, Артём Фадеев, Александр Булатов, Виталия Корниенко, Александра Киселёва (II), Ирина Пегова, Дмитрий Лысенков, Иван Ефремов (IV), Маша Лобынцева, Руслан Смирнов, Арсений Сергеев, Мирослава Михайлова, Марта Дромашко, Децл, Владимир Зайцев

Описание: Многодетное семейство Осиных отправляется в автопушествие из Красноярска в Минск ради младшей дочки Вари, которая мечтает победить в международном конкурсе народной песни. На пути к детской мечте героев ждут неожиданные попутчики, в том числе бандиты-близнецы, которые преследуют семейный минивэн.

Качество: WEB-DLRip
Формат: AVI

Видео: 720x400 (16:9), 25.000 fps, XviD, 1812 Kbps
Аудио: AC3, 48.0 KHz, 2 ch, 192 kbps
скриншот  скриншот  скриншот  скриншот  

General
Complete name : Downloads\Pognali.S01.WEB-DLRip.25Kuzmich\Pognali.S01.E01.WEB-DLRip.25Kuzmich.avi
Format : AVI
Format/Info : Audio Video Interleave
File size : 350 MiB
Duration : 24mn 19s
Overall bit rate : 2 013 Kbps
Writing application : VirtualDubMod 1.5.10.3 | www.virtualdub-fr.org || (build 2550/release)
Writing library : VirtualDubMod build 2550/release
Video #0
ID : 0
Format : MPEG-4 Visual
Format profile : Advanced Simple@L5
Format settings, BVOP : 1
Format settings, QPel : No
Format settings, GMC : No warppoints
Format settings, Matrix : Default (MPEG)
Codec ID : XVID
Codec ID/Hint : XviD
Duration : 24mn 19s
Bit rate : 1 812 Kbps
Width : 720 pixels
Height : 400 pixels
Display aspect ratio : 16:9
Frame rate : 25.000 fps
Color space : YUV
Chroma subsampling : 4:2:0
Bit depth : 8 bits
Scan type : Progressive
Compression mode : Lossy
Bits/(Pixel*Frame) : 0.252
Stream size : 315 MiB (90%)
Writing library : XviD 73
Audio #1
ID : 1
Format : AC-3
Format/Info : Audio Coding 3
Mode extension : CM (complete main)
Format settings, Endianness : Big
Codec ID : 2000
Duration : 24mn 18s
Bit rate mode : Constant
Bit rate : 192 Kbps
Channel(s) : 2 channels
Channel positions : Front: L R
Sampling rate : 48.0 KHz
Bit depth : 16 bits
Compression mode : Lossy
Stream size : 33.4 MiB (10%)
Alignment : Split accross interleaves
Interleave, duration : 40 ms (1.00 video frame)
Interleave, preload duration : 500 ms

Внимание! Раздача ведётся путём добавления новых серий; при каждом добавлении создаётся новый торрент.
Чтобы начать докачку новой серии, пользователям необходимо сделать следующее:
1. Остановить скачивание;
2. Удалить старый торрент у себя из клиента (старые серии удалять не надо);
3. Скачать новый торрент и запустить его у себя в клиенте вместо старого, при этом указать клиенту путь в старую папку куда и должно происходить скачивание новых серий. Ваш клиент при этом должен произвести хеширование (проверку) старой папки и будет докачивать только те серии, которых у вас ещё нет. Старые серии при этом не удаляются, а продолжают раздаваться! Eсли вы уже удалили старые серии, то предотвратить повторную закачку старых серий можно, отжав галочку в соответствующих местах при запуске нового торрента.

pb.wtf



Скачать Погнали через торрент https://img10.lostpic.net/2020/07/06/ff757261ca4a67b2906d8ffd18890630.jpg Скачать фильм Погнали через торрент бесплантно в хорошем качестве Описание: Многодетное семейство Осиных отправляется в автопушествие из Красноярска в Минск ради младшей дочки Вари, которая мечтает ... 10 10 9
Торрент: Зарегистрирован [2020-07-30 17:49] · скачан: 41 раз
Статус: √ проверено
Размер: 7.18 GB
Как cкачать? Как скачать Погнали через торрент | qTorrent

% Раздел Тема Автор DL S | L
Наши сериалы [ 6.27 GB ] Погнали / Сезон: 1 / Серии: 1-21 из 21 [2020 ситком WEB-DLRip-AVC] bober100 Скачать
2 | 1
Наши сериалы [ 6.13 GB ] Погнали / Сезон: 1 / Серии: 1-21 из 21 [2020 ситком WEB-DLRip] bober100 Скачать
1 | 1
Наши сериалы [ 12.88 GB ] Погнали / Сезон: 1 / Серии: 1-21 из 21 [2020 ситком WEB-DL 1080p] bober100 Скачать
3 | 1
Наши сериалы [ 7.64 GB ] Погнали / Сезон: 1 / Серии: 1-21 из 21 [2020 ситком WEB-DL 720p] bober100 Скачать
1 | 0

28-11-2019 20:33  

Отключить всю рекламу на сайте

    Дорогой пользователь! Огромная просьба, поблагодарите релизера, оцените раздачу и оставьте свои комментарий, если Вы скачали Погнали через торрент бесплатно! Внесите свою лепту в развитие PiratBit!
    Комментировать посты могут только пользователи прошедшие не сложную регистрацию
    Показать сообщения:    

    Погнали через торрент
    Скачать бесплатно Погнали
    Погнали скачать торрент
    Погнали смотреть онлайн
    Cкачать фильм Погнали бесплатно
    Погнали скачать торрент в хорошем качестве
    Погнали смотреть онлайн бесплатно в хорошем качестве


    Вы не можете начинать темы
    Вы не можете отвечать на сообщения
    Вы не можете редактировать свои сообщения
    Вы не можете удалять свои сообщения
    Вы не можете голосовать в опросах
    Вы не можете прикреплять файлы к сообщениям
    Вы можете скачивать файлы