2 сезон

iTunes

1 сезон

1

iTunes

iTunes

iTunes

1 сезон

RePack

30

ИГРА 18+

pack

ВАЖНО

!!Акция!!

Alien_RageХит недели

RePack

MK11
pack

Забери бонус

RePack

jed

!!Акция!!

Alien_Rage

RePack

fifa19

RePack

Assassins Creed: Odyssey

RePack

NEED FOR SPEED™ PAYBACK

4 сезон

9 сезон

Бесстыжие 9 сезон

Все сериалы

все сериалы на PB.wtf

RePack

FAR CRY 5
  

Погнали / Сезон: 1 / Серии: 1-21 из 21 (Илья Казанков, Филипп Коршунов) [2020, Комедия, приключения, ситком, WEB-DL 720p] pb.wtf

Погнали через торрент pb.wtf

Размер: 7.64 GB | Добавлен: 3 мес. 1 д. назад | Торрент скачан:27 раз
Скачать  

06-07-2020 10:32 Погнали Скачать торрент  

Погнали
Год выпуска: 2020
Страна: Россия
Выпущено: Россия, «Art Pictures Vision» при участии «Varvar Studio» по заказу телеканала СТС
Жанр: Комедия, приключения, ситком
Продолжительность: ~ 00:25:00
Субтитры: отсутствуют

Режиссер: Илья Казанков, Филипп Коршунов



В ролях: Ольга Медынич, Михаил Трухин, Артём Фадеев, Александр Булатов, Виталия Корниенко, Александра Киселёва (II), Ирина Пегова, Дмитрий Лысенков, Иван Ефремов (IV), Маша Лобынцева, Руслан Смирнов, Арсений Сергеев, Мирослава Михайлова, Марта Дромашко, Децл, Владимир Зайцев

Описание: Многодетное семейство Осиных отправляется в автопушествие из Красноярска в Минск ради младшей дочки Вари, которая мечтает победить в международном конкурсе народной песни. На пути к детской мечте героев ждут неожиданные попутчики, в том числе бандиты-близнецы, которые преследуют семейный минивэн.

Качество: WEB-DL 720p
Формат: MKV

Видео: MPEG-4 AVC, ~ 2000 Кбит/с, 1280x720
Аудио: AC3, 2 ch, 192 Кбит/с
скриншот  скриншот  скриншот  скриншот  

Общее
Уникальный идентификатор : 228716626121526150529386419438867870351 (0xAC11384B8A89CFBF9969EFAEF96A728F)
Полное имя : D:\Pognali.2019.WEB-DL.(720p).Getty\Pognali.e01.2019.WEB-DL.(720p).Getty.mkv
Формат : Matroska
Версия формата : Version 4 / Version 2
Размер файла : 380 Мбайт
Продолжительность : 24 м. 19 с.
Общий поток : 2186 Кбит/сек
Название фильма : Pognali.e01.2019.WEB-DL.(720p).Getty
Дата кодирования : UTC 2020-07-06 09:15:13
Программа кодирования : mkvmerge v7.8.0 ('River Man') 32bit built on Mar 27 2015 16:18:02
Библиотека кодирования : libebml v1.3.1 + libmatroska v1.4.2

Видео
Идентификатор : 1
Формат : AVC
Формат/Информация : Advanced Video Codec
Профиль формата : High@L4.1
Параметр CABAC формата : Да
Параметр RefFrames формата : 5 кадров
Идентификатор кодека : V_MPEG4/ISO/AVC
Продолжительность : 24 м. 19 с.
Битрейт : 1951 Кбит/сек
Ширина : 1280 пикселей
Высота : 720 пикселей
Соотношение сторон : 16:9
Режим частоты кадров : Постоянный
Частота кадров : 25,000 кадров/сек
Стандарт вещания : PAL
Цветовое пространство : YUV
Субдискретизация насыщенности : 4:2:0
Битовая глубина : 8 бит
Тип развёртки : Прогрессивная
Бит/(Пиксели*Кадры) : 0.085
Размер потока : 339 Мбайт (89%)
Default : Да
Forced : Нет
Цветовой диапазон : Limited
Основные цвета : BT.709
Характеристики трансфера : BT.709
Коэффициенты матрицы : BT.709

Аудио
Идентификатор : 2
Формат : AC-3
Формат/Информация : Audio Coding 3
Расширение режима : CM (complete main)
Параметр Endianness формата : Big
Идентификатор кодека : A_AC3
Продолжительность : 24 м. 19 с.
Вид битрейта : Постоянный
Битрейт : 192 Кбит/сек
Каналы : 2 канала
Расположение каналов : Front: L R
Частота : 48,0 КГц
Частота кадров : 31,250 кадров/сек (1536 spf)
Метод сжатия : С потерями
Размер потока : 33,4 Мбайт (9%)
Default : Да
Forced : Нет

Внимание! Раздача ведётся путём добавления новых серий; при каждом добавлении создаётся новый торрент.
Чтобы начать докачку новой серии, пользователям необходимо сделать следующее:
1. Остановить скачивание;
2. Удалить старый торрент у себя из клиента (старые серии удалять не надо);
3. Скачать новый торрент и запустить его у себя в клиенте вместо старого, при этом указать клиенту путь в старую папку куда и должно происходить скачивание новых серий. Ваш клиент при этом должен произвести хеширование (проверку) старой папки и будет докачивать только те серии, которых у вас ещё нет. Старые серии при этом не удаляются, а продолжают раздаваться! Eсли вы уже удалили старые серии, то предотвратить повторную закачку старых серий можно, отжав галочку в соответствующих местах при запуске нового торрента.

pb.wtf



Скачать Погнали через торрент https://img10.lostpic.net/2020/07/06/ff757261ca4a67b2906d8ffd18890630.jpg Скачать фильм Погнали через торрент бесплантно в хорошем качестве Описание: Многодетное семейство Осиных отправляется в автопушествие из Красноярска в Минск ради младшей дочки Вари, которая мечтает ... 9.8 10 6
Торрент: Зарегистрирован [2020-07-30 18:42] · скачан: 27 раз
Статус: √ проверено
Размер: 7.64 GB
Как cкачать? Как скачать Погнали через торрент | qTorrent

% Раздел Тема Автор DL S | L
Наши сериалы [ 6.27 GB ] Погнали / Сезон: 1 / Серии: 1-21 из 21 [2020 ситком WEB-DLRip-AVC] bober100 Скачать
2 | 2
Наши сериалы [ 6.13 GB ] Погнали / Сезон: 1 / Серии: 1-21 из 21 [2020 ситком WEB-DLRip] bober100 Скачать
2 | 0
Наши сериалы [ 12.88 GB ] Погнали / Сезон: 1 / Серии: 1-21 из 21 [2020 ситком WEB-DL 1080p] bober100 Скачать
2 | 1
Наши сериалы [ 7.18 GB ] Погнали / Сезон: 1 / Серии: 1-21 из 21 [2020 ситком WEB-DLRip] bober100 Скачать
2 | 0

28-11-2019 20:33  

Отключить всю рекламу на сайте

    Дорогой пользователь! Огромная просьба, поблагодарите релизера, оцените раздачу и оставьте свои комментарий, если Вы скачали Погнали через торрент бесплатно! Внесите свою лепту в развитие PiratBit!
    Комментировать посты могут только пользователи прошедшие не сложную регистрацию
    Показать сообщения:    

    Погнали через торрент
    Скачать бесплатно Погнали
    Погнали скачать торрент
    Погнали смотреть онлайн
    Cкачать фильм Погнали бесплатно
    Погнали скачать торрент в хорошем качестве
    Погнали смотреть онлайн бесплатно в хорошем качестве


    Вы не можете начинать темы
    Вы не можете отвечать на сообщения
    Вы не можете редактировать свои сообщения
    Вы не можете удалять свои сообщения
    Вы не можете голосовать в опросах
    Вы не можете прикреплять файлы к сообщениям
    Вы можете скачивать файлы