1 сезон

1 сезон

iTunes

1

КиноПоиск HD

Кинопоиск HD

iTunes

13

1 сезон

RePack

30

Новинка

ВАЖНО

ИГРА 18+

pack

RePack

MK11
pack

Легкие деньги

RePack

jed

RePack

fifa19

RePack

RDR2

RePack

NEED FOR SPEED™ PAYBACK

4 сезон

9 сезон

Бесстыжие 9 сезон

Все сериалы

все сериалы на PB.wtf

RePack

FAR CRY 5
  
Magnet ссылка

Вернувшиеся / Les revenants (Робан Кампийо) [2004, Фэнтези, драма, BDRip] MVO [Омикрон] pb.wtf

Вернувшиеся через торрент pb.wtf

Размер: 1.46 GB | Добавлен: 9 мес. назад | Торрент скачан:16 раз
Скачать  

06-07-2020 17:43 Вернувшиеся Скачать торрент  

Вернувшиеся | Les revenants
Год выпуска: 2004
Страна: Франция
Студия: Canal+ [fr], Centre National de la Cinématographie (CNC), France 3 Cinéma, Gimages 6, Gimages Développement
Жанр: Фэнтези, драма
Продолжительность: 01:41:53
Перевод: Профессиональный (многоголосый) | Омикрон
Субтитры: отсутствуют

Режиссер: Робан Кампийо

rating

В ролях: Жеральдин Пайя, Жонатан Заккаи, Фредерик Пьеро, Виктор Гарривье, Катрин Сами, Джамел Барек, Мари Матерон, Гай Херберт, Катрин Сальвини

Описание: Жизнь в небольшом французском городке кардинально меняется после того, как тысячи недавно умерших возвращаются из могил к своим родным и на рабочие места. Мертвые не агрессивны, немного замедлены, но они ведут себя как люди, и живой части человечества надо найти решение этой проблемы. А мертвые чего-то ждут.

Качество: BDRip
Формат: AVI

Видео: XviD, 720x304, 25 fps, 1593 kbps
Аудио: AC3, 6 ch, ~448 kbps
скриншот  скриншот  скриншот  скриншот  

Общее
Полное имя : C:UsersUkolVideosCapturesLes.revenants.2004.BDRip.1450MB.MegaPeer.avi
Формат : AVI
Формат/Информация : Audio Video Interleave
Размер файла : 1,46 Гбайт
Продолжительность : 1 ч. 41 м.
Общий поток : 2051 Кбит/сек
Программа кодирования : VirtualDubMod 1.5.10.3 | www.virtualdub-fr.org || (build 2550/release)
Библиотека кодирования : VirtualDubMod build 2550/release

Видео
Идентификатор : 0
Формат : MPEG-4 Visual
Профиль формата : Advanced Simple@L5
Параметр BVOP формата : 1
Параметр QPel формата : Нет
Параметр GMC формата : Без точки перехода
Параметр матрицы формата : Выборочная
Идентификатор кодека : XVID
Идентификатор кодека/Подсказка : XviD
Продолжительность : 1 ч. 41 м.
Битрейт : 1593 Кбит/сек
Ширина : 720 пикселей
Высота : 304 пикселя
Соотношение сторон : 2,35:1
Частота кадров : 25,000 кадров/сек
Цветовое пространство : YUV
Субдискретизация насыщенности : 4:2:0
Битовая глубина : 8 бит
Тип развёртки : Прогрессивная
Метод сжатия : С потерями
Бит/(Пиксели*Кадры) : 0.291
Размер потока : 1,13 Гбайт (78%)
Библиотека кодирования : XviD 73

Аудио
Идентификатор : 1
Формат : AC-3
Формат/Информация : Audio Coding 3
Расширение режима : CM (complete main)
Параметр Endianness формата : Big
Идентификатор кодека : 2000
Продолжительность : 1 ч. 41 м.
Вид битрейта : Постоянный
Битрейт : 448 Кбит/сек
Каналы : 6 каналов
Расположение каналов : Front: L C R, Side: L R, LFE
Частота : 48,0 КГц
Частота кадров : 31,250 кадров/сек (1536 spf)
Метод сжатия : С потерями
Размер потока : 326 Мбайт (22%)
Выравнивание : Разделение по промежуткам
Продолжительность промежутка : 40 мс. (1,00 видеокадр)
Время предзагрузки промежутка : 500 мс.

pb.wtf



Скачать Вернувшиеся через торрент http://s020.radikal.ru/i718/1604/5d/ebdd01e82e47.jpg Скачать фильм Вернувшиеся через торрент бесплантно в хорошем качестве Описание: Жизнь в небольшом французском городке кардинально меняется после того, как тысячи недавно умерших возвращаются из могил к своим ... 10 10 4
Торрент: Зарегистрирован [2020-07-06 17:43] · скачан: 16 раз
Статус: √ проверено
Размер: 1.46 GB
Как cкачать? Как скачать Вернувшиеся через торрент | UTorrent

% Раздел Тема Автор DL S | L
Фильмы [HD 720p, 1080p] (Хороший звук DUB, MVO) [ 3.13 GB ] Вернувшиеся / Les revenants [2004 BDRip 720p by msltel] MVO msltel Скачать
1 | 0
Фильмы [HD 720p, 1080p] (Хороший звук DUB, MVO) [ 8.15 GB ] Вернувшиеся / Les revenants [2004 BDRip 1080p by msltel] MVO msltel Скачать
1 | 0

28-11-2019 20:33  

Отключить всю рекламу на сайте

    Дорогой пользователь! Огромная просьба, поблагодарите релизера, оцените раздачу и оставьте свои комментарий, если Вы скачали Вернувшиеся через торрент бесплатно! Внесите свою лепту в развитие PiratBit!
    Комментировать посты могут только пользователи прошедшие не сложную регистрацию
    Показать сообщения:    

    Вернувшиеся через торрент
    Скачать бесплатно Вернувшиеся
    Вернувшиеся скачать торрент
    Вернувшиеся смотреть онлайн
    Cкачать фильм Вернувшиеся бесплатно
    Вернувшиеся скачать торрент в хорошем качестве
    Вернувшиеся смотреть онлайн бесплатно в хорошем качестве


    Вы не можете начинать темы
    Вы не можете отвечать на сообщения
    Вы не можете редактировать свои сообщения
    Вы не можете удалять свои сообщения
    Вы не можете голосовать в опросах
    Вы не можете прикреплять файлы к сообщениям
    Вы можете скачивать файлы