1 сезон

3 сезон

iTunes

1

iTunes

MVO

iTunes

13

1 сезон

RePack

30

Deluxe

pack

Лицензия

ВАЖНО

ИГРА 18+

pack

RePack

MK11

RePack

jed

RePack

fifa19

RePack

RDR2

RePack

NEED FOR SPEED™ PAYBACK

4 сезон

9 сезон

Бесстыжие 9 сезон

Все сериалы

все сериалы на PB.wtf

RePack

FAR CRY 5

Anonymous, доброй ночи, мы катастрофически не успеваем собрать деньги на оплату серверов, помогите нам пожалуйста 5,10,15р., для нас важна любая помощь . В качестве благодарности мы отключим Вам всю рекламу на сайте (укажите свой ник в строку Ваше имя)!

×
  
Magnet ссылка

Почти знамениты / Military Wives (Питер Каттанео) [2019, Драма, комедия, BDRip 720p] DUB [iTunes] pb.wtf

Почти знамениты через торрент pb.wtf

Размер: 4.19 GB | Добавлен: 1 год назад | Торрент скачан:14 раз
Скачать  

07-07-2020 02:00 Почти знамениты Скачать торрент  

Почти знамениты | Military Wives
Год выпуска: 2019
Страна: Великобритания
Студия: 42, Ingenious Media, Koliko Films
Жанр: Драма, комедия
Продолжительность: 01:52:49
Перевод: Дублированный | iTunes
Субтитры: Английские

Режиссер: Питер Каттанео

rating

В ролях: Кристин Скотт Томас, Шэрон Хорган, Эмма Лаундес, Гэби Френч, Лара Росси, Эми Джеймс-Келли, Индия Риа Амартейфио, Грег Уайз, Джейсон Флеминг, Лаура Чекли

Описание: Что объединяет светскую даму, неуправляемую продавщицу и новобрачную? Они умеют петь! Всего лишь нужно немного удачи и команда отчаянных женщин придумает хитроумный план, чтобы стать ближе к своей мечте.

Качество: BDRip 720p
Формат: MKV

Видео: MPEG-4 AVC, 1280x536, 4285 Kbit/s, 23.976 fps
Аудио #01: 48 kHz, AC3, 5.1, 384 Kbps | iTunes | RUS |
Аудио #02: 48 kHz, AC3, 5.1, 640 Kbps | Оригинал | ENG |
скриншот  скриншот  скриншот  скриншот  скриншот  

General
Unique ID : 246965198086812062731885474218762193507 (0xB9CBC45B8899053C51BFBE774C624A63)
Complete name : E:Video111Military.Wives.2019.BDRip.720p.seleZen.mkv
Format : Matroska
Format version : Version 4
File size : 4.19 GiB
Duration : 1 h 52 min
Overall bit rate : 5 311 kb/s
Movie name : Military Wives 2019 from селезень
Encoded date : UTC 2020-07-06 21:33:58
Writing application : mkvmerge v40.0.0 ('Old Town Road + Pony') 64-bit
Writing library : libebml v1.3.9 + libmatroska v1.5.2

Video
ID : 1
Format : AVC
Format/Info : Advanced Video Codec
Format profile : High@L4.1
Format settings : CABAC / 12 Ref Frames
Format settings, CABAC : Yes
Format settings, Reference frames : 12 frames
Codec ID : V_MPEG4/ISO/AVC
Duration : 1 h 52 min
Bit rate : 4 285 kb/s
Width : 1 280 pixels
Height : 536 pixels
Display aspect ratio : 2.40:1
Frame rate mode : Constant
Frame rate : 23.976 (24000/1001) FPS
Color space : YUV
Chroma subsampling : 4:2:0
Bit depth : 8 bits
Scan type : Progressive
Bits/(Pixel*Frame) : 0.260
Stream size : 3.38 GiB (81%)
Title : iFT
Writing library : x264 core 161 r3011+56M ~ Encoded by Mocunaman in Portugal
Encoding settings : cabac=1 / ref=12 / deblock=1:-3:-3 / analyse=0x3:0x113 / me=umh / subme=11 / psy=1 / fade_compensate=0.00 / psy_rd=1.00:0.00 / mixed_ref=1 / me_range=32 / chroma_me=1 / trellis=2 / 8x8dct=1 / cqm=0 / deadzone=21, 11 / fast_pskip=0 / chroma_qp_offset=-2 / threads=17 / lookahead_threads=2 / sliced_threads=0 / nr=0 / decimate=0 / interlaced=0 / bluray_compat=0 / constrained_intra=0 / fgo=0 / bframes=9 / b_pyramid=2 / b_adapt=2 / b_bias=0 / direct=3 / weightb=1 / open_gop=0 / weightp=2 / keyint=250 / keyint_min=23 / scenecut=40 / intra_refresh=0 / rc_lookahead=60 / rc=crf / mbtree=0 / crf=16.2000 / qcomp=0.60 / qpmin=0:0:0 / qpmax=69:69:69 / qpstep=4 / vbv_maxrate=62500 / vbv_bufsize=78125 / crf_max=0.0 / nal_hrd=none / filler=0 / ip_ratio=1.30 / pb_ratio=1.20 / aq=3:0.80 / aq-sensitivity=10.00 / aq-factor=1.00:1.00:1.00 / aq2=0 / aq3=0 / zones=9055, 9260, crf=15.7/11526, 11735, crf=15.7/12579, 13551, crf=15.7/21663, 23991, crf=15.7/35296, 35663, crf=15.7/53135, 54863, crf=15.7/77087, 82680, crf=15.2/140568, 141504, crf=15.7/149904, 150792, crf=15.7
Language : English
Default : Yes
Forced : No
Color range : Limited
Color primaries : BT.709
Transfer characteristics : BT.709
Matrix coefficients : BT.709

Audio #1
ID : 2
Format : AC-3
Format/Info : Audio Coding 3
Commercial name : Dolby Digital
Codec ID : A_AC3
Duration : 1 h 52 min
Bit rate mode : Constant
Bit rate : 384 kb/s
Channel(s) : 6 channels
Channel layout : L R C LFE Ls Rs
Sampling rate : 48.0 kHz
Frame rate : 31.250 FPS (1536 SPF)
Compression mode : Lossy
Stream size : 310 MiB (7%)
Title : iTunes
Language : Russian
Service kind : Complete Main
Default : Yes
Forced : Yes

Audio #2
ID : 3
Format : AC-3
Format/Info : Audio Coding 3
Commercial name : Dolby Digital
Codec ID : A_AC3
Duration : 1 h 52 min
Bit rate mode : Constant
Bit rate : 640 kb/s
Channel(s) : 6 channels
Channel layout : L R C LFE Ls Rs
Sampling rate : 48.0 kHz
Frame rate : 31.250 FPS (1536 SPF)
Compression mode : Lossy
Stream size : 516 MiB (12%)
Title : Original
Language : English
Service kind : Complete Main
Default : No
Forced : No

Text #1
ID : 4
Format : UTF-8
Codec ID : S_TEXT/UTF8
Codec ID/Info : UTF-8 Plain Text
Duration : 1 h 46 min
Bit rate : 68 b/s
Count of elements : 1618
Stream size : 53.2 KiB (0%)
Title : Full
Language : English
Default : No
Forced : No

Text #2
ID : 5
Format : UTF-8
Codec ID : S_TEXT/UTF8
Codec ID/Info : UTF-8 Plain Text
Duration : 1 h 46 min
Bit rate : 74 b/s
Count of elements : 1786
Stream size : 57.9 KiB (0%)
Title : SDH
Language : English
Default : No
Forced : No

Menu
00:00:00.000 : en:Глава 01
00:09:25.273 : en:Глава 02
00:15:03.152 : en:Глава 03
00:21:50.100 : en:Глава 04
00:31:05.238 : en:Глава 05
00:42:04.063 : en:Глава 06
00:50:11.675 : en:Глава 07
00:59:32.402 : en:Глава 08
01:11:19.442 : en:Глава 09
01:19:06.116 : en:Глава 10
01:25:51.521 : en:Глава 11
01:37:13.786 : en:Глава 12

pb.wtf



Скачать Почти знамениты через торрент https://i112.fastpic.ru/big/2020/0626/ea/6c64e396bfdb2bf5327a353f0238eeea.jpg Скачать фильм Почти знамениты через торрент бесплантно в хорошем качестве Описание: Что объединяет светскую даму, неуправляемую продавщицу и новобрачную? Они умеют петь! Всего лишь нужно немного удачи и команда ... 10 10 3
Торрент: Зарегистрирован [2020-07-07 02:00] · скачан: 14 раз
Статус: √ проверено
Размер: 4.19 GB
Как cкачать? Как скачать Почти знамениты через торрент | UTorrent

% Раздел Тема Автор DL S | L
Фильмы 2019-2020 [DVDrip, WEB-DLRip, HDrip] (DUB, MVO) [ 1.41 GB ] Почти знамениты / Military Wives [2019 BDRip] - Twi7ter Скачать
2 | 0
Фильмы 2019-2020 [DVDrip, WEB-DLRip, HDrip] (DUB, MVO) [ 746 MB ] Почти знамениты / Military Wives [2019 HDRip] bober100 Скачать
1 | 0
Фильмы (Blu-ray, BD-Remux, HDDVD) [ 25.24 GB ] Почти знамениты / Military Wives [2019 BD Remux 1080p] bober100 Скачать
1 | 0
Фильмы [HD 720p, 1080p] (Хороший звук DUB, MVO) [ 8.66 GB ] Почти знамениты / Military Wives [2019 BDRip 1080p] bober100 Скачать
1 | 0
Фильмы (WEB-DL 720p, 1080p) [ 6.66 GB ] Почти знамениты / Military Wives [2019 WEB-DL 1080p] bober100 Скачать
1 | 0
Фильмы 2019-2020 [DVDrip, WEB-DLRip, HDrip] (DUB, MVO) [ 1.46 GB ] Почти знамениты / Military Wives [2019 BDRip] bober100 Скачать
2 | 0

28-11-2019 20:33  

Отключить всю рекламу на сайте

    Дорогой пользователь! Огромная просьба, поблагодарите релизера, оцените раздачу и оставьте свои комментарий, если Вы скачали Почти знамениты через торрент бесплатно! Внесите свою лепту в развитие PiratBit!
    Комментировать посты могут только пользователи прошедшие не сложную регистрацию
    Показать сообщения:    

    Почти знамениты через торрент
    Скачать бесплатно Почти знамениты
    Почти знамениты скачать торрент
    Почти знамениты смотреть онлайн
    Cкачать фильм Почти знамениты бесплатно
    Почти знамениты скачать торрент в хорошем качестве
    Почти знамениты смотреть онлайн бесплатно в хорошем качестве


    Вы не можете начинать темы
    Вы не можете отвечать на сообщения
    Вы не можете редактировать свои сообщения
    Вы не можете удалять свои сообщения
    Вы не можете голосовать в опросах
    Вы не можете прикреплять файлы к сообщениям
    Вы можете скачивать файлы