Ссылка на приватное зеркало нашего сайта всего за 1$. Внимание количество ограничено!!!

2 сезон

iTunes

1 сезон

1

2 сезон

2 сезон

iTunes

1 сезон

RePack

30

Ultimate

ВАЖНО

ИГРА 18+

pack

RePack

MK11
pack

Забери бонус

RePack

jed

!!Акция!!

Alien_Rage

RePack

fifa19

RePack

Assassins Creed: Odyssey

RePack

NEED FOR SPEED™ PAYBACK

4 сезон

9 сезон

Бесстыжие 9 сезон

Все сериалы

все сериалы на PB.wtf

RePack

FAR CRY 5
  

Охотники за наживой / Охотники за головами / Bounty Hunters / Сезон: 1-2 / Серии: 1-12 из 12 (Уильям Синклер) [2017-2019, боевик, комедия, приключения., WEB-DL 1080p] [VO] (Кураж-Бамбей) pb.wtf

Охотники за наживой через торрент pb.wtf

Раздают: 1 [ 0 KB/s ]
Размер: 6.9 GB | Добавлен: 4 мес. 28 д. назад | Торрент скачан:27 раз
Скачать  

07-07-2020 12:46 Охотники за наживой Скачать торрент  

Охотники за наживой / Охотники за головами / Bounty Hunters Год выпуска: 2017-2019
Страна: Великобритания
Жанр: боевик, комедия, приключения
Продолжительность: ~ 00:23:00

Перевод: Профессиональный (одноголосый закадровый) Кураж-Бамбей

Режиссёр: Уильям Синклер

В ролях: Брэдли Джеймс, Глория Гараюа, Эльза Молльен, Джэк Уайтхолл, Рози Перес, Эмбер Агар, Док Браун, Джи-Род, Джексон Кай, Джози Кидд, Кристиан Очоа, Чарити Уэйкфилд, Ольга Мередис

Описание: Сюжет рассказывает о противостоянии колоритной парочки, книгочея-археолога и жесткой охотницей за злодеями, с международными преступниками. Главный герой сериала, археолог из Великобритании, вызывается помочь отцу, попавшему в больницу. Он погружается в дела семейного антикварного бизнеса, стоящего на грани разорения.
Одновременно с финансовыми проблемами на семью обрушивается новая напасть: персонажа Джека Уайтхолла начинают преследовать бандиты. На помощь ученому приходит брутальная девушка из Нью-Йорка, которая работает «охотницей за наживой», ловит и передает полиции преступников по всему миру. Вместе этой колоритной парочке предстоит выяснить, что происходит и почему они оказались в центре криминального водоворота.


rating
Качество: WEB-DL 1080p
Формат: MKV
Видео: MPEG-4 AVC, ~ 3068 Кбит/с, 1920x1080, 25.000 Кадр/с
Аудио: 48 kHz, AC3 2 ch, ~192 kbps|Кураж-Бамбей|
Субтитры: нет

Реклама: Отсутствует
Общее
Уникальный идентификатор : 235744427868975747802422846920668184286 (0xB15AB9AC4FFE685E484E6A3F47F37EDE)
Полное имя : D:\Фильмы\Перевод Кураж-Бомбей с WINK\Охотники за наживой ''Bounty Hunters''\s.01 e.01-06\02 - Эпизод#2.mkv
Формат : Matroska
Версия формата : Version 4
Размер файла : 467 Мбайт
Продолжительность : 19 м. 59 с.
Общий поток : 3 263 Кбит/сек
Дата кодирования : UTC 2020-06-03 10:07:05
Программа кодирования : mkvmerge v45.0.0 ('Heaven in Pennies') 64-bit
Библиотека кодирования : libebml v1.3.10 + libmatroska v1.5.2
Обложка : Yes
Attachments : cover.jpg

Видео
Идентификатор : 1
Формат : AVC
Формат/Информация : Advanced Video Codec
Профиль формата : High@L4
Настройки формата : CABAC / 3 Ref Frames
Параметр CABAC формата : Да
Параметр RefFrames формата : 3 кадра
Идентификатор кодека : V_MPEG4/ISO/AVC
Продолжительность : 19 м. 59 с.
Битрейт : 3 068 Кбит/сек
Ширина : 1 920 пикселей
Высота : 1 080 пикселей
Соотношение сторон : 16:9
Режим частоты кадров : Постоянный
Частота кадров : 25,000 кадров/сек
Цветовое пространство : YUV
Субдискретизация насыщенности : 4:2:0
Битовая глубина : 8 бит
Тип развёртки : Прогрессивная
Бит/(Пиксели*Кадры) : 0.059
Размер потока : 439 Мбайт (94%)
Язык : English
Default : Да
Forced : Нет

Аудио
Идентификатор : 2
Формат : AC-3
Формат/Информация : Audio Coding 3
Коммерческое название : Dolby Digital
Идентификатор кодека : A_AC3
Продолжительность : 19 м. 59 с.
Вид битрейта : Постоянный
Битрейт : 192 Кбит/сек
Каналы : 2 канала
Channel layout : L R
Частота : 48,0 КГц
Частота кадров : 31,250 кадров/сек (1536 SPF)
Метод сжатия : С потерями
Размер потока : 27,5 Мбайт (6%)
Заголовок : Кураж-Бамбей
Язык : Russian
Service kind : Complete Main
Default : Да
Forced : Нет

скриншот  скриншот  скриншот  
pb.wtf



Скачать Охотники за наживой через торрент https://i112.fastpic.ru/big/2020/0603/2c/fcc9e51b8d863948c5688ff8f93e822c.jpg Скачать фильм Охотники за наживой через торрент бесплантно в хорошем качестве Описание: Сюжет рассказывает о противостоянии колоритной парочки, книгочея-археолога и жесткой охотницей за злодеями, с международными ... 10 10 2
Торрент: Зарегистрирован [2020-07-07 12:46] · скачан: 27 раз
Статус: √ проверено
Размер: 6.9 GB
Как cкачать? Как скачать Охотники за наживой через торрент | qTorrent

% Раздел Тема Автор DL S | L
Зарубежные сериалы [ 3.24 GB ] Охотники за наживой / Охотники за головами / Bounty Hunters / Сезон: 1-2 / Серии: 1-9 из 12 [2017-2019 . WEB-DLRip] [VO] killermax2013 Скачать
1 | 0

28-11-2019 20:33  

Отключить всю рекламу на сайте

    Дорогой пользователь! Огромная просьба, поблагодарите релизера, оцените раздачу и оставьте свои комментарий, если Вы скачали Охотники за наживой через торрент бесплатно! Внесите свою лепту в развитие PiratBit!
    Комментировать посты могут только пользователи прошедшие не сложную регистрацию
    Показать сообщения:    

    Охотники за наживой через торрент
    Скачать бесплатно Охотники за наживой
    Охотники за наживой скачать торрент
    Охотники за наживой смотреть онлайн
    Cкачать фильм Охотники за наживой бесплатно
    Охотники за наживой скачать торрент в хорошем качестве
    Охотники за наживой смотреть онлайн бесплатно в хорошем качестве


    Вы не можете начинать темы
    Вы не можете отвечать на сообщения
    Вы не можете редактировать свои сообщения
    Вы не можете удалять свои сообщения
    Вы не можете голосовать в опросах
    Вы не можете прикреплять файлы к сообщениям
    Вы можете скачивать файлы