Ссылка на приватное зеркало нашего сайта всего за 1$. Внимание количество ограничено!!!

2 сезон

iTunes

1 сезон

1

2 сезон

2 сезон

iTunes

1 сезон

RePack

30

Новинка

ВАЖНО

ИГРА 18+

pack

RePack

MK11
pack

Забери бонус

RePack

jed

!!Акция!!

Alien_Rage

RePack

fifa19

RePack

Assassins Creed: Odyssey

RePack

NEED FOR SPEED™ PAYBACK

4 сезон

9 сезон

Бесстыжие 9 сезон

Все сериалы

все сериалы на PB.wtf

RePack

FAR CRY 5
  

Форпост / The Outpost (Род Лури) [2020, Боевик, военный, драма, история, WEBRip 720p] [MVO] (HDRezka Studio) pb.wtf

Форпост через торрент pb.wtf

Раздают: 1 [ 1 KB/s ]
Размер: 5.45 GB | Добавлен: 4 мес. 27 д. назад | Торрент скачан:401 раз
Скачать  

08-07-2020 09:35 Форпост Скачать торрент  

Форпост / The Outpost
Год выпуска: 2020
Страна: США
Жанр: Боевик, военный, драма, история
Продолжительность: 02:03:22
Перевод: Профессиональный (многоголосый закадровый) *HDRezka Studio*
Субтитры: русские (forced)

Режиссер: Род Лури

В ролях: Орландо Блум , Скотт Иствуд, Калеб Лэндри Джонс, Майло Гибсон, Бобби Локвуд, Джейкоб Скипио, Джек Кеси, Селина Синден, Тейлор Джон Смит, Александр Арнольд

Описание: Небольшое подразделение американских солдат на отдалённом боевом форпосте в глубине афганских гор вступает в неравный бой с превосходящими силами бойцов Талибана.

rating

Качество видео: WEBRip 720p
Формат видео: MKV
Видео: AVC, 1280x692, 23.976 fps, ~ 5 881 kb/s
Аудио: 48 kHz, AC3 Dolby Digital, 3/2 (L,C,R,l,r) + LFE ch, ~448 kbps
General
Unique ID : 71216894632086798327058791428117643986 (0x3593DFFF76C5FC7FF13020E12A4642D2)
Complete name : G:\The.Outpost.2020.WEBRip.720p.rus.5.1.HDREZKA.STUDIO.mkv
Format : Matroska
Format version : Version 4
File size : 5.45 GiB
Duration : 2 h 3 min
Overall bit rate mode : Variable
Overall bit rate : 6 330 kb/s
Encoded date : UTC 2020-07-08 04:53:55
Writing application : mkvmerge v28.2.0 ('The Awakening') 64-bit
Writing library : libebml v1.3.6 + libmatroska v1.4.9

Video
ID : 1
Format : AVC
Format/Info : Advanced Video Codec
Format profile : High@L4.1
Format settings : CABAC / 1 Ref Frames
Format settings, CABAC : Yes
Format settings, Reference : 1 frame
Codec ID : V_MPEG4/ISO/AVC
Duration : 2 h 3 min
Bit rate mode : Variable
Bit rate : 5 881 kb/s
Maximum bit rate : 2 000 kb/s
Width : 1 280 pixels
Height : 692 pixels
Display aspect ratio : 1.85:1
Frame rate mode : Constant
Frame rate : 23.976 (24000/1001) FPS
Color space : YUV
Chroma subsampling : 4:2:0
Bit depth : 8 bits
Scan type : Progressive
Bits/(Pixel*Frame) : 0.277
Stream size : 5.07 GiB (93%)
Default : Yes
Forced : No

Audio
ID : 2
Format : AC-3
Format/Info : Audio Coding 3
Commercial name : Dolby Digital
Codec ID : A_AC3
Duration : 2 h 3 min
Bit rate mode : Constant
Bit rate : 448 kb/s
Channel(s) : 6 channels
Channel layout : L R C LFE Ls Rs
Sampling rate : 48.0 kHz
Frame rate : 31.250 FPS (1536 SPF)
Compression mode : Lossy
Stream size : 395 MiB (7%)
Language : Russian
Service kind : Complete Main
Default : Yes
Forced : No
скриншот   скриншот   скриншот   скриншот  
pb.wtf



Скачать Форпост через торрент https://i112.fastpic.ru/big/2020/0708/0d/3b6d357012a8014e3cb2831dd2164e0d.jpeg Скачать фильм Форпост через торрент бесплантно в хорошем качестве Описание: Небольшое подразделение американских солдат на отдалённом боевом форпосте в глубине афганских гор вступает в неравный бой с ... 9.1 10 23
Торрент: Зарегистрирован [2020-07-08 19:50] · скачан: 401 раз
Статус: √ проверено
Размер: 5.45 GB
Как cкачать? Как скачать Форпост через торрент | qTorrent

% Раздел Тема Автор DL S | L
Фильмы 2019-2020 [DVDrip, WEB-DLRip, HDrip] (DUB, MVO) [ 2.13 GB ] Форпост / The Outpost [2020 военный история BDRip] - Twi7ter Скачать
34 | 2
Фильмы 2019-2020 [DVDrip, WEB-DLRip, HDrip] (DUB, MVO) [ 1.46 GB ] Форпост / The Outpost [2020 военный история BDRip] - Twi7ter Скачать
49 | 2
Фильмы 2019-2020 [DVDrip, WEB-DLRip, HDrip] (DUB, MVO) [ 2.85 GB ] Форпост / The Outpost [2020 военный история BDRip-AVC] bober100 Скачать
3 | 0
Фильмы 2019-2020 [DVDrip, WEB-DLRip, HDrip] (DUB, MVO) [ 749 MB ] Форпост / The Outpost [2020 военный история HDRip] bober100 Скачать
2 | 0
Фильмы 2019-2020 [DVDrip, WEB-DLRip, HDrip] (DUB, MVO) [ 1.46 GB ] Форпост / The Outpost [2020 военный история BDRip-AVC] bober100 Скачать
1 | 0
Фильмы (Blu-ray, BD-Remux, HDDVD) [ 29.55 GB ] Форпост / The Outpost [2020 военный история BD Remux 1080p] +MVO [HDRezka Studio] bober100 Скачать
2 | 0
Фильмы 2019-2020 [DVDrip, WEB-DLRip, HDrip] (DUB, MVO) [ 2.18 GB ] Форпост / The Outpost [2020 военный история BDRip] bober100 Скачать
3 | 0

28-11-2019 20:33  

Отключить всю рекламу на сайте

08-07-2020 21:20 Форпост Скачать торрент  

"Небольшое подразделение американских солдат на отдалённом боевом форпосте в глубине афганских гор вступает в неравный бой с превосходящими силами бойцов Талибана."
Ога)) с каких пор пиндосы со своими воевать началиpb.wtf



08-07-2020 22:27 Форпост Скачать торрент  

Орландо БлЮм )pb.wtf



09-07-2020 01:51 Форпост Скачать торрент  

У пендосов понтов много,а вояки они не какие.pb.wtf



    Дорогой пользователь! Огромная просьба, поблагодарите релизера, оцените раздачу и оставьте свои комментарий, если Вы скачали Форпост через торрент бесплатно! Внесите свою лепту в развитие PiratBit!
    Комментировать посты могут только пользователи прошедшие не сложную регистрацию
    Показать сообщения:    

    Форпост через торрент
    Скачать бесплатно Форпост
    Форпост скачать торрент
    Форпост смотреть онлайн
    Cкачать фильм Форпост бесплатно
    Форпост скачать торрент в хорошем качестве
    Форпост смотреть онлайн бесплатно в хорошем качестве


    Вы не можете начинать темы
    Вы не можете отвечать на сообщения
    Вы не можете редактировать свои сообщения
    Вы не можете удалять свои сообщения
    Вы не можете голосовать в опросах
    Вы не можете прикреплять файлы к сообщениям
    Вы можете скачивать файлы