2 сезон

iTunes

MVO

1

2 сезон

iTunes

iTunes

1 сезон

RePack

30

Ultimate

ВАЖНО

ИГРА 18+

pack

RePack

MK11
pack

Легкие деньги

RePack

jed

RePack

fifa19

RePack

RDR2

RePack

NEED FOR SPEED™ PAYBACK

4 сезон

9 сезон

Бесстыжие 9 сезон

Все сериалы

все сериалы на PB.wtf

RePack

FAR CRY 5

Anonymous, добрый день, мы не успеваем собрать деньги на оплату серверов за декабрь и январь, помогите нам пожалуйста в это трудное время. В качестве благодарности мы отключим Вам всю рекламу на сайте (укажите свой ник в строку Ваше имя)!

×
  
Magnet ссылка

Телохранитель из Пекина / The Defender / Zhong Nan Hai bao biao (Кори Юэнь) [1994 г., Боевик, WEB-DLRip 720p / 60 FPS, Профессиональный (многоголосый)] от R.G. HD-Films pb.wtf

Телохранитель из Пекина через торрент pb.wtf

Раздают: 1 [ 0 KB/s ]
Размер: 3.88 GB | Добавлен: 6 мес. назад | Торрент скачан:141 раз
Скачать  

08-07-2020 16:03 Телохранитель из Пекина Скачать торрент  

Телохранитель из Пекина / The Defender / Zhong Nan Hai bao biao
Год выпуска: 1994
Страна: Гонконг
Жанр: Боевик
Продолжительность: 01:32:43
Перевод: Профессиональный (многоголосый)
Субтитры: English

Режиссер: Кори Юэнь

Премьера в мире: 28 июля 1994

rating

В ролях: Джет Ли, Кристи Чунг, Кент Чэн, Колин Чоу, Уильям Чу, Джон ДеМита, Кейт Фергюсон, Джо Ханна, Том Конкл, Дженнифер Пас

Описание: Свидетели долго не живут, как гласит жестокое правило преступного мира. Когда молодая женщина по имени Мишель Юн становится единственной очевидицей убийства, совершенного могущественным злодеем, никто не сомневался, что дни ее сочтены. Но нет правил без исключений. Нанятый другом Мишель, из Пекина прибывает таинственный телохранитель. Поначалу героиня не верит, чтo от него будет толк, однако первая же уличная перестрелка показывает, на что способен этот человек-армия. Молниеносный как атакующая кобра, ее защитник за пару секунд может нейтрализовать толпу врагов. И лишь одно может помешать ему исполнить свой профессиональный долг -внезапно нагрянувшая любовь к прекрасной Мишель…

Качество: WEB-DLRip 720p / 60 FPS
Формат: MKV
Видео кодек: H.264
Аудио кодек: AC3
Видео: x264, 1280 x 720 ( 16:9 ), 5642 kbps, 60,000 fps, ( 0.102 bpp)
Аудио#1: Русский, AC-3, 48.0 KHz, 6 ch, 384 Kbps MVO ( Видеосервис )
Релиз от:

скриншот   скриншот   скриншот   скриншот   скриншот   скриншот  Автор рипа: slaventi-69
x264 [info]: frame I:1296 Avg QP:18.74 size: 79908
x264 [info]: frame P:92597 Avg QP:19.68 size: 25719
x264 [info]: frame B:238013 Avg QP:21.89 size: 5950
x264 [info]: consecutive B-frames: 6.0% 6.4% 9.2% 12.3% 57.9% 8.3%


Общее
Уникальный идентификатор : 202577718021594212636365785543500355697 (0x98670CA04208D07CADBC55BBDB3FD871)
Полное имя : F:\The.Defender.(1994).WEB-DLRip.720p.(60 Fps)..mkv
Формат : Matroska
Версия формата : Version 4
Размер файла : 3,88 Гбайт
Продолжительность : 1 ч. 32 м.
Общий поток : 6030 Кбит/сек
Название фильма : Телохранитель из Пекина / The.Defender / Zhong Nan Hai bao biao (1994) WEB-DLRip 720p (60 Fps)
Дата кодирования : UTC 2020-07-08 15:06:33
Программа кодирования : mkvmerge v12.0.0 ('Trust / Lust') 64bit
Библиотека кодирования : libebml v1.3.4 + libmatroska v1.4.5

Видео
Идентификатор : 1
Формат : AVC
Формат/Информация : Advanced Video Codec
Профиль формата : High@L4.1
Настройки формата : CABAC / 9 Ref Frames
Параметр CABAC формата : Да
Параметр RefFrames формата : 9 кадров
Идентификатор кодека : V_MPEG4/ISO/AVC
Продолжительность : 1 ч. 32 м.
Битрейт : 5642 Кбит/сек
Ширина : 1280 пикселей
Высота : 720 пикселей
Соотношение сторон : 16:9
Режим частоты кадров : Постоянный
Частота кадров : 60,000 кадров/сек
Цветовое пространство : YUV
Субдискретизация насыщенности : 4:2:0
Битовая глубина : 8 бит
Тип развёртки : Прогрессивная
Бит/(Пиксели*Кадры) : 0.102
Размер потока : 3,63 Гбайт (94%)
Заголовок : slaventi-69 ( R.G. HD-Films | 60 fps )
Библиотека кодирования : x264 core 130 r2273 b3065e6
Настройки программы : cabac=1 / ref=9 / deblock=1:-1:-1 / analyse=0x3:0x133 / me=umh / subme=9 / psy=1 / psy_rd=1.00:0.00 / mixed_ref=1 / me_range=32 / chroma_me=1 / trellis=2 / 8x8dct=1 / cqm=0 / deadzone=21,11 / fast_pskip=0 / chroma_qp_offset=-2 / threads=10 / lookahead_threads=2 / sliced_threads=0 / nr=0 / decimate=1 / interlaced=0 / bluray_compat=0 / constrained_intra=0 / bframes=5 / b_pyramid=2 / b_adapt=2 / b_bias=0 / direct=1 / weightb=1 / open_gop=0 / weightp=2 / keyint=600 / keyint_min=23 / scenecut=40 / intra_refresh=0 / rc=crf / mbtree=0 / crf=18.3 / qcomp=0.60 / qpmin=0 / qpmax=69 / qpstep=4 / ip_ratio=1.40 / pb_ratio=1.30 / aq=1:1.00
Язык : Chinese
Default : Да
Forced : Нет

Аудио
Идентификатор : 2
Формат : AC-3
Формат/Информация : Audio Coding 3
Коммерческое название : Dolby Digital
Идентификатор кодека : A_AC3
Продолжительность : 1 ч. 32 м.
Вид битрейта : Постоянный
Битрейт : 384 Кбит/сек
Каналы : 6 каналов
Channel layout : L R C LFE Ls Rs
Частота : 48,0 КГц
Частота кадров : 31,250 кадров/сек (1536 SPF)
Битовая глубина : 16 бит
Метод сжатия : С потерями
Размер потока : 253 Мбайт (6%)
Заголовок : MVO ( Видеосервис )
Язык : Russian
ServiceKind/String : Complete Main
Default : Да
Forced : Нет

Текст
Идентификатор : 3
Формат : UTF-8
Идентификатор кодека : S_TEXT/UTF8
Идентификатор кодека/Информация : UTF-8 Plain Text
Продолжительность : 1 ч. 27 м.
Битрейт : 50 бит/сек
ElementCount : 1192
Размер потока : 32,4 Кбайт (0%)
Заголовок : SDH
Язык : English
Default : Нет
Forced : Нет

Просьба к переливающим на другие сайты, в оформлении указывайте пожалуйста авторство группы R.G. HD-Films pb.wtf



Скачать Телохранитель из Пекина через торрент https://i3.imageban.ru/out/2019/11/05/bf44769311f006d7ed86f6ed0bfff470.jpg Скачать фильм Телохранитель из Пекина через торрент бесплантно в хорошем качестве Описание: Свидетели долго не живут, как гласит жестокое правило преступного мира. Когда молодая женщина по имени Мишель Юн становится ... 9.9 10 12
Торрент: Зарегистрирован [2020-07-08 16:03] · скачан: 141 раз
Статус: √ проверено
Размер: 3.88 GB
Как cкачать? Как скачать Телохранитель из Пекина через торрент | UTorrent

28-11-2019 20:33  

Отключить всю рекламу на сайте

08-07-2020 21:58 Телохранитель из Пекина Скачать торрент  

Большое спасибо, не перестаёте радовать любимыми фильмами. Вот бы еще посмотреть в таком же качестве: "Дэнни Цепной пес" и "Бесстрашный"pb.wtf



09-07-2020 15:29 Телохранитель из Пекина Скачать торрент  

Фильм просто агонь!!! Зубодробилово и мочилово полнейшее!!! Огромное спасибо за очередной прекрасный релиз.pb.wtf



31-07-2020 13:25 Телохранитель из Пекина Скачать торрент  

звук полное дерьмищеpb.wtf



    Дорогой пользователь! Огромная просьба, поблагодарите релизера, оцените раздачу и оставьте свои комментарий, если Вы скачали Телохранитель из Пекина через торрент бесплатно! Внесите свою лепту в развитие PiratBit!
    Комментировать посты могут только пользователи прошедшие не сложную регистрацию
    Показать сообщения:    

    Телохранитель из Пекина через торрент
    Скачать бесплатно Телохранитель из Пекина
    Телохранитель из Пекина скачать торрент
    Телохранитель из Пекина смотреть онлайн
    Cкачать фильм Телохранитель из Пекина бесплатно
    Телохранитель из Пекина скачать торрент в хорошем качестве
    Телохранитель из Пекина смотреть онлайн бесплатно в хорошем качестве


    Вы не можете начинать темы
    Вы не можете отвечать на сообщения
    Вы не можете редактировать свои сообщения
    Вы не можете удалять свои сообщения
    Вы не можете голосовать в опросах
    Вы не можете прикреплять файлы к сообщениям
    Вы можете скачивать файлы