Ссылка на приватное зеркало всего за 1$. Внимание количество ограничено!!!

iTunes

iTunes

iTunes

1

iTunes

iTunes

iTunes

WEBRip

iTunes

30
pack

$ от Little Big

ВАЖНО

!!Акция!!

Alien_RageХит недели

RePack

Resident Evil 21

ИГРА 18+

pack

RePack

jed

!!Акция!!

Alien_Rage

RePack

fifa19

RePack

Assassins Creed: Odyssey

RePack

NEED FOR SPEED™ PAYBACK

4 сезон

9 сезон

Бесстыжие 9 сезон

Все сериалы

все сериалы на PB.wtf

RePack

FAR CRY 5
  

Билал / Bilal: A New Breed of Hero (Хурам Эйч Аллави, Эйман Джамал) [2015, Мультфильм, боевик, приключения, BDRip 1080p] DUB [iTunes] pb.wtf

Билал через торрент pb.wtf

Раздают: 13 [ 255 KB/s ]
Размер: 8.76 GB | Добавлен: 1 мес. 4 д. назад | Торрент скачан:113 раз
Скачать  

09-07-2020 03:39 Билал Скачать торрент  

Билал | Bilal: A New Breed of Hero
«A Legend Breaks Free!»

Год выпуска: 2015
Страна: ОАЭ, США, Швейцария
Студия: Barajoun Entertainment, Jeridoo Universe, Resnick Interactive Development
Жанр: Мультфильм, боевик, приключения
Продолжительность: 01:49:39
Перевод: Дублированный | iTunes
Субтитры: Английские (Forced, Full, SDH)

Режиссер: Хурам Эйч Аллави, Эйман Джамал

rating

В ролях: Адевале Акиннуойе-Агбадже, Иэн МакШейн, Чайна Энн МакКлейн, Томас Иэн Николас, Майкл Гросс, Синтия Кэй МакУильямс, Джейкоб Латимор, Фред Татаскьор, Джон Карри, Мик Вингерт

Описание: Тысячу лет тому назад храбрый мальчик, мечтавший стать великим воином, был похищен коварными врагами. Вдали от дома, в мире, где все подчинено жажде наживы, где справедливость — лишь миф, он находит в себе силы возвысить свой голос и все изменить.

Качество: BDRip 1080p
Формат: MKV

Видео: 1920x804 (2, 40:1), 23, 976 fps, MPEG-4 AVC ~ 10, 4 Мbps avg, 0.281 bit/pixel
Аудио#1: AC3, 48 kHz, 6 ch, ~384.00 kbps avg | русский | iTunes
Аудио#2: AC3, 48 kHz, 6 ch, ~640.00 kbps avg | английский | Оригинал
скриншот  скриншот  скриншот  скриншот  скриншот  

Общее
Уникальный идентификатор : 97015185764589897377262511333218366443 (0x48FC71F432F33DEA05C34EFB4BE2B3EB)
Полное имя : Bilal.A.New.Breed.of.Hero.2015.1080p.BluRay.DD5.1.x264.mkv
Формат : Matroska
Версия формата : Version 4
Размер файла : 8, 76 Гбайт
Продолжительность : 1 ч. 49 м.
Общий поток : 11, 4 Мбит/сек
Название фильма : Билал / Bilal: A New Breed of Hero (2015)
Дата кодирования : UTC 2020-07-08 07:22:15
Программа кодирования : mkvmerge v47.0.0 ('Black Flag') 64-bit
Библиотека кодирования : libebml v1.3.10 + libmatroska v1.5.2
Обложка : Yes
Attachments : cover.jpg

Видео
Идентификатор : 1
Формат : AVC
Формат/Информация : Advanced Video Codec
Профиль формата : High@L4.1
Настройки формата : CABAC / 5 Ref Frames
Параметр CABAC формата : Да
Параметр RefFrames формата : 5 кадров
Идентификатор кодека : V_MPEG4/ISO/AVC
Продолжительность : 1 ч. 49 м.
Битрейт : 10, 4 Мбит/сек
Ширина : 1 920 пикселей
Высота : 804 пикселя
Соотношение сторон : 2, 40:1
Режим частоты кадров : Постоянный
Частота кадров : 23, 976 (24000/1001) кадра/сек
Цветовое пространство : YUV
Субдискретизация насыщенности : 4:2:0
Битовая глубина : 8 бит
Тип развёртки : Прогрессивная
Бит/(Пиксели*Кадры) : 0.281
Размер потока : 7, 97 Гбайт (91%)
Заголовок : #SPEED
Библиотека кодирования : x264 core 157 r2867+103 0d6443f t_mod_Custom_2 [8-bit@all X86_64]
Настройки программы : cabac=1 / ref=5 / deblock=1:-3:-3 / analyse=0x3:0x133 / me=umh / subme=10 / psy=1 / fade_compensate=0.00 / psy_rd=0.80:0.00 / mixed_ref=1 / me_range=32 / chroma_me=1 / trellis=2 / 8x8dct=1 / cqm=0 / deadzone=21, 11 / fast_pskip=0 / chroma_qp_offset=-2 / threads=12 / lookahead_threads=2 / sliced_threads=0 / nr=0 / decimate=0 / interlaced=0 / bluray_compat=0 / constrained_intra=0 / fgo=0 / bframes=8 / b_pyramid=2 / b_adapt=2 / b_bias=0 / direct=3 / weightb=1 / open_gop=0 / weightp=2 / keyint=250 / keyint_min=23 / scenecut=40 / intra_refresh=0 / rc=crf / mbtree=0 / crf=16.0000 / qcomp=0.60 / qpmin=0:0:0 / qpmax=69:69:69 / qpstep=4 / ip_ratio=1.40 / pb_ratio=1.30 / aq=3:0.95 / aq-sensitivity=10.00 / aq-factor=1.00:1.00:1.00 / aq2=0 / aq3=0 / zones=3308, 3949, crf=14.1/6686, 7747, crf=14.2/21190, 21640, crf=14.1/28305, 28935, crf=14.5/29509, 32556, crf=14.2/46860, 47734, crf=14.2/54954, 55371, crf=14.5/56268, 59065, crf=14.6/66369, 66489, crf=14.6/72342, 73271, crf=14.5/77319, 78218, crf=14.6/81191, 81384, crf=14.5/83824, 84014, crf=14.6/101998, 103981, crf=14.6/113846, 114952, crf=14.5/115477, 115699, crf=14.4/116031, 119043, crf=14.5/122114, 123316, crf=14.2/139185, 143000, crf=14.7/144304, 144552, crf=14.7/148880, 149044, crf=14.7
Язык : English
Default : Да
Forced : Нет

Аудио #1
Идентификатор : 2
Формат : AC-3
Формат/Информация : Audio Coding 3
Коммерческое название : Dolby Digital
Идентификатор кодека : A_AC3
Продолжительность : 1 ч. 49 м.
Вид битрейта : Постоянный
Битрейт : 384 Кбит/сек
Каналы : 6 каналов
Channel layout : L R C LFE Ls Rs
Частота : 48, 0 КГц
Частота кадров : 31, 250 кадров/сек (1536 SPF)
Метод сжатия : С потерями
Размер потока : 301 Мбайт (3%)
Заголовок : iTunes
Язык : Russian
Default : Да
Forced : Да

Аудио #2
Идентификатор : 3
Формат : AC-3
Формат/Информация : Audio Coding 3
Коммерческое название : Dolby Digital
Идентификатор кодека : A_AC3
Продолжительность : 1 ч. 49 м.
Вид битрейта : Постоянный
Битрейт : 640 Кбит/сек
Каналы : 6 каналов
Channel layout : L R C LFE Ls Rs
Частота : 48, 0 КГц
Частота кадров : 31, 250 кадров/сек (1536 SPF)
Метод сжатия : С потерями
Размер потока : 502 Мбайт (6%)
Язык : English
Default : Нет
Forced : Нет

Текст #1
Идентификатор : 4
Формат : UTF-8
Идентификатор кодека : S_TEXT/UTF8
Идентификатор кодека/Информация : UTF-8 Plain Text
Продолжительность : 1 ч. 45 м.
Битрейт : 0 бит/сек
Count of elements : 10
Размер потока : 622 байт (0%)
Заголовок : Forced
Язык : English
Default : Нет
Forced : Нет

Текст #2
Идентификатор : 5
Формат : UTF-8
Идентификатор кодека : S_TEXT/UTF8
Идентификатор кодека/Информация : UTF-8 Plain Text
Продолжительность : 1 ч. 48 м.
Битрейт : 36 бит/сек
Count of elements : 889
Размер потока : 29, 0 Кбайт (0%)
Язык : English
Default : Нет
Forced : Нет

Текст #3
Идентификатор : 6
Формат : UTF-8
Идентификатор кодека : S_TEXT/UTF8
Идентификатор кодека/Информация : UTF-8 Plain Text
Продолжительность : 1 ч. 49 м.
Битрейт : 50 бит/сек
Count of elements : 1426
Размер потока : 40, 0 Кбайт (0%)
Заголовок : SDH
Язык : English
Default : Нет
Forced : Нет

Меню
00:00:00.000 : : Chapter 1
00:10:30.630 : : Chapter 2
00:19:38.969 : : Chapter 3
00:29:25.222 : : Chapter 4
00:41:30.196 : : Chapter 5
00:48:54.515 : : Chapter 6
00:57:00.709 : : Chapter 7
01:06:09.507 : : Chapter 8
01:16:42.264 : : Chapter 9
01:30:26.421 : : Chapter 10
01:39:44.145 : : Chapter 11
01:45:25.903 : : Chapter 12

pb.wtf



Скачать Билал через торрент https://d.radikal.ru/d20/2007/33/f8f4a6e60cf7.png Скачать фильм Билал через торрент бесплантно в хорошем качестве Описание: Тысячу лет тому назад храбрый мальчик, мечтавший стать великим воином, был похищен коварными врагами. Вдали от дома, в мире, где ... 9.2 10 6
Торрент: Зарегистрирован [2020-07-09 03:39] · скачан: 113 раз
Статус: √ проверено
Размер: 8.76 GB
Как cкачать? Как скачать Билал через торрент | qTorrent

% Раздел Тема Автор DL S | L
Иностранные мультфильмы [ 752 MB ] Билал / Bilal: A New Breed of Hero [2015 Мультфильм BDRip-AVC] от wolf1245 & MediaBit Lithuania Скачать
1 | 0
Иностранные мультфильмы [ 2.13 GB ] Билал / Bilal: A New Breed of Hero [2015 Мультфильм BDRip-AVC] bober100 Скачать
12 | 0
Иностранные мультфильмы [ 710 MB ] Билал / Bilal: A New Breed of Hero [2015 мультфильм HDRip ""] coc900 Скачать
2 | 0
Иностранные мультфильмы [ 1.46 GB ] Билал / Bilal: A New Breed of Hero [2015 мультфильм BDRip] killermax2013 Скачать
7 | 0

28-11-2019 20:33  

Отключить всю рекламу на сайте

    Дорогой пользователь! Огромная просьба, поблагодарите релизера, оцените раздачу и оставьте свои комментарий, если Вы скачали Билал через торрент бесплатно! Внесите свою лепту в развитие PiratBit!
    Комментировать посты могут только пользователи прошедшие не сложную регистрацию
    Показать сообщения:    

    Билал через торрент
    Скачать бесплатно Билал
    Билал скачать торрент
    Билал смотреть онлайн
    Cкачать фильм Билал бесплатно
    Билал скачать торрент в хорошем качестве
    Билал смотреть онлайн бесплатно в хорошем качестве


    Вы не можете начинать темы
    Вы не можете отвечать на сообщения
    Вы не можете редактировать свои сообщения
    Вы не можете удалять свои сообщения
    Вы не можете голосовать в опросах
    Вы не можете прикреплять файлы к сообщениям
    Вы можете скачивать файлы