Ссылка на приватное зеркало нашего сайта всего за 1$. Внимание количество ограничено!!!

2 сезон

iTunes

1 сезон

1

iTunes

iTunes

iTunes

1 сезон

RePack

30

ИГРА 18+

pack

ВАЖНО

!!Акция!!

Alien_RageХит недели

RePack

MK11
pack

Забери бонус

RePack

jed

!!Акция!!

Alien_Rage

RePack

fifa19

RePack

Assassins Creed: Odyssey

RePack

NEED FOR SPEED™ PAYBACK

4 сезон

9 сезон

Бесстыжие 9 сезон

Все сериалы

все сериалы на PB.wtf

RePack

FAR CRY 5
  

Кубанские казаки (Иван Пырьев) [1949, мюзикл, комедия, BDRemux 1080p] [RUS Transfer] - KORSAR pb.wtf

Кубанские казаки через торрент pb.wtf

Размер: 17.16 GB | Добавлен: 3 мес. 19 д. назад | Торрент скачан:3 раза
Скачать  

09-07-2020 10:22 Кубанские казаки Скачать торрент  

Кубанские казаки
Год выпуска: 1949
Страна: СССР
Жанр: Мюзикл, комедия
Продолжительность: 01:48:54
Перевод: Не требуется
Субтитры: Нет
Режиссёр: Иван Пырьев
В ролях: Сергей Лукьянов, Марина Ладынина, Александр Хвыля, Владлен Давыдов, Владимир Володин, Екатерина Савинова, Андрей Петров, Владимир Дорофеев, Елена Савицкая, Валентина Телегина, Сергей Блинников, Борис Андреев, Виктор Бубнов, Клара Лучко, Юрий Любимов
Описание: На колхозной ярмарке встречаются представители двух процветающих кубанских колхозов — Галина Пересветова и Гордей Ворон. Они любят друг друга, но скрывают свои чувства, ведь Галина и Гордей — давние конкуренты. Они соревнуются в трудовых подвигах, и главное для каждого из них — вывести свой колхоз на первое место.

rating

Качество: BDRemux 1080p
Формат: MKV
Видео: MPEG-4 AVC, 1920x1080 (16:9), 19805 kbps, 23.976 fps
Аудио 1: Russian: 48 kHz, LPCM Audio, 2.0 ch, 24 bits, 2304 kbps
Аудио 2: Russian: 48 kHz, Dolby Digital, 2.0 ch, 16 bits, 448 kbps

Релиз от:


Общее
Уникальный идентификатор : 204840978419701567839393905086734452480 (0x9A1AEFFA99B244089F91837AA422C700)
Полное имя : Кубанские.казаки.1949.BDRemux.1080p.KORSAR.mkv
Формат : Matroska
Версия формата : Version 4 / Version 2
Размер файла : 17,2 Гбайт
Продолжительность : 1 ч. 48 м.
Режим общего битрейта : Переменный
Общий поток : 22,6 Мбит/сек
Дата кодирования : UTC 2020-07-06 17:54:43
Программа кодирования : mkvmerge v7.8.0 ('River Man') 32bit built on Apr 3 2015 12:11:22
Библиотека кодирования : libebml v1.3.1 + libmatroska v1.4.2

Видео
Идентификатор : 1
Формат : AVC
Формат/Информация : Advanced Video Codec
Профиль формата : High@L4
Параметр CABAC формата : Да
Параметр RefFrames формата : 2 кадра
Параметр GOP формата : M=2, N=12
Идентификатор кодека : V_MPEG4/ISO/AVC
Продолжительность : 1 ч. 48 м.
Вид битрейта : Переменный
Битрейт : 19,8 Мбит/сек
Максимальный битрейт : 22,0 Мбит/сек
Ширина : 1920 пикселей
Высота : 1080 пикселей
Соотношение сторон : 16:9
Режим частоты кадров : Постоянный
Частота кадров : 23,976 (24000/1001) кадра/сек
Цветовое пространство : YUV
Субдискретизация насыщенности : 4:2:0
Битовая глубина : 8 бит
Тип развёртки : Прогрессивная
Бит/(Пиксели*Кадры) : 0.398
Размер потока : 15,1 Гбайт (88%)
Язык : Russian
Default : Да
Forced : Нет

Аудио #1
Идентификатор : 2
Формат : PCM
Идентификатор кодека : A_PCM/INT/LIT
Продолжительность : 1 ч. 48 м.
Вид битрейта : Постоянный
Битрейт : 2304 Кбит/сек
Каналы : 2 канала
Частота : 48,0 КГц
Частота кадров : 32,000 кадра/сек (1500 SPF)
Битовая глубина : 24 бит
Размер потока : 1,75 Гбайт (10%)
Язык : Russian
Default : Да
Forced : Нет

Аудио #2
Идентификатор : 3
Формат : AC-3
Формат/Информация : Audio Coding 3
Параметр Endianness формата : Big
Идентификатор кодека : A_AC3
Продолжительность : 1 ч. 48 м.
Вид битрейта : Постоянный
Битрейт : 448 Кбит/сек
Каналы : 2 канала
Расположение каналов : Front: L R
Частота : 48,0 КГц
Частота кадров : 31,250 кадров/сек (1536 SPF)
Битовая глубина : 16 бит
Метод сжатия : С потерями
Размер потока : 349 Мбайт (2%)
Язык : Russian
Default : Нет
Forced : Нет

Меню
00:00:00.000 : en:Chapter 1
00:01:25.919 : en:Chapter 2
00:10:12.528 : en:Chapter 3
00:21:27.703 : en:Chapter 4
00:29:43.156 : en:Chapter 5
00:40:55.369 : en:Chapter 6
00:52:03.328 : en:Chapter 7
01:04:19.522 : en:Chapter 8
01:13:55.347 : en:Chapter 9
01:25:37.799 : en:Chapter 10
01:36:08.387 : en:Chapter 11
pb.wtf



Скачать Кубанские казаки через торрент https://i1.imageban.ru/out/2020/07/08/3485a3ced2affb73e25e5ee206283f9b.png Скачать фильм Кубанские казаки через торрент бесплантно в хорошем качестве Описание: На колхозной ярмарке встречаются представители двух процветающих кубанских колхозов — Галина Пересветова и Гордей Ворон. Они ... 5.5 10 2
Info! Золотая раздача, скачанное не засчитывается.
Торрент: Зарегистрирован [2020-07-09 10:22] · скачан: 3 раз
Статус: √ проверено
Размер: 17.16 GB
Как cкачать? Как скачать Кубанские казаки через торрент | qTorrent

28-11-2019 20:33  

Отключить всю рекламу на сайте

    Дорогой пользователь! Огромная просьба, поблагодарите релизера, оцените раздачу и оставьте свои комментарий, если Вы скачали Кубанские казаки через торрент бесплатно! Внесите свою лепту в развитие PiratBit!
    Комментировать посты могут только пользователи прошедшие не сложную регистрацию
    Показать сообщения:    

    Кубанские казаки через торрент
    Скачать бесплатно Кубанские казаки
    Кубанские казаки скачать торрент
    Кубанские казаки смотреть онлайн
    Cкачать фильм Кубанские казаки бесплатно
    Кубанские казаки скачать торрент в хорошем качестве
    Кубанские казаки смотреть онлайн бесплатно в хорошем качестве


    Вы не можете начинать темы
    Вы не можете отвечать на сообщения
    Вы не можете редактировать свои сообщения
    Вы не можете удалять свои сообщения
    Вы не можете голосовать в опросах
    Вы не можете прикреплять файлы к сообщениям
    Вы можете скачивать файлы