2 сезон

iTunes

MVO

1

2 сезон

iTunes

iTunes

1 сезон

RePack

30

Новинка

ВАЖНО

ИГРА 18+

pack

RePack

MK11
pack

Легкие деньги

RePack

jed

RePack

fifa19

RePack

RDR2

RePack

NEED FOR SPEED™ PAYBACK

4 сезон

9 сезон

Бесстыжие 9 сезон

Все сериалы

все сериалы на PB.wtf

RePack

FAR CRY 5

Anonymous, доброй ночи, мы не успеваем собрать деньги на оплату серверов за декабрь и январь, помогите нам пожалуйста в это трудное время. В качестве благодарности мы отключим Вам всю рекламу на сайте (укажите свой ник в строку Ваше имя)!

×
  
Magnet ссылка

Хитмэн / Sat sau ji wong (Вэй Тунг) [1998 г., Боевик, комедия, BDRip 720p / 60 FPS, Профессиональный (двухголосый)] ( Расширенная (азиатская) версия ) от R.G. HD-Films pb.wtf

Хитмэн через торрент pb.wtf

Раздают: 1 [ 0 KB/s ]
Размер: 4.33 GB | Добавлен: 6 мес. назад | Торрент скачан:91 раз
Скачать  

09-07-2020 16:31 Хитмэн Скачать торрент  

Хитмэн / Sat sau ji wong
Год выпуска: 1998
Страна: Гонконг
Жанр: Боевик, комедия
Продолжительность: 01:44:18
Перевод: Профессиональный (двухголосый)
Субтитры: русские (на непереведённые места), английские (полные)

Режиссер: Вэй Тунг

Премьера в мире: 3 апреля 1998

rating

В ролях: Джет Ли, Эрик Цан, Саймон Ям, Гиги Люн, Кейджи Сато, Пауль Раповски, Квонг Ким Йип, Хидери Майкен, Тимми Хо, Чи Хунг ЭнДжи, Джон Чинг, Кенджи Сахара, Мика Каванабе, Токашики Митсуру

Описание: В Гонг Конге объявился «Король убийц» — наемный убийца, который работает не из-за денег, и убирает только опасных преступников. Его очередной жертвой становится престарелый главарь якудза, совершенно отвратительный тип, который во время войны издевался над китайскими девушками.

Проблема в том, что незадолго до смерти японец основал специальный фонд, 100 миллн. американских долларов из которого получит тот, кто отомстит убийце. Чтобы получить деньги в Гонг Конг слетаются «киллеры» со всего света, среди них оказался молодой парень по имени Фэй. Его привел агент-мошенник Нгок Ло, собирающийся чужими руками заработать большие деньги.


Доп. информация: Русский перевод взят из европейского DVD и наложен на центр китайской (mandarin) дороги. Так как на европейском DVD перевод наложен на английский дубляж, а не на китайский в результате получился микс с русским переводом наложеннным на английскую речь, но со вставками из китайской речи на "расширенных" местах. К тому же музыкальное сопровождение в фильме координально отличается от европейской версии.

Качество: BDRip 720p / 60 FPS
Формат: MKV
Видео кодек: H.264
Аудио кодек: AC3
Видео: x264, 1264 x 680 ( 1,85:1 ), 5558 kbps, 60,000 fps, ( 0.108 bpp)
Аудио#1: Русский, AC-3, 48.0 KHz, 6 ch, 384 Kbps DVO
Релиз от:

скриншот   скриншот   скриншот   скриншот   скриншот   скриншот  Автор рипа: slaventi-69
Общее
Уникальный идентификатор : 179342885503370765443700235737823377806 (0x86EC2EF00CD9BC9EBF3AA758442AF98E)
Полное имя : F:\Hitman.(1998).BDRip.720p.(60 Fps).mkv
Формат : Matroska
Версия формата : Version 4
Размер файла : 4,33 Гбайт
Продолжительность : 1 ч. 44 м.
Общий поток : 5946 Кбит/сек
Название фильма : Хитмэн / Sat sau ji wong (1998) BDRip 720p (60 Fps) | Расширенная (азиатская) версия
Дата кодирования : UTC 2020-07-09 15:53:24
Программа кодирования : mkvmerge v12.0.0 ('Trust / Lust') 64bit
Библиотека кодирования : libebml v1.3.4 + libmatroska v1.4.5

Видео
Идентификатор : 1
Формат : AVC
Формат/Информация : Advanced Video Codec
Профиль формата : High@L4.1
Настройки формата : CABAC / 9 Ref Frames
Параметр CABAC формата : Да
Параметр RefFrames формата : 9 кадров
Идентификатор кодека : V_MPEG4/ISO/AVC
Продолжительность : 1 ч. 44 м.
Битрейт : 5558 Кбит/сек
Ширина : 1264 пикселя
Высота : 680 пикселей
Соотношение сторон : 1,85:1
Режим частоты кадров : Постоянный
Частота кадров : 60,000 кадров/сек
Цветовое пространство : YUV
Субдискретизация насыщенности : 4:2:0
Битовая глубина : 8 бит
Тип развёртки : Прогрессивная
Бит/(Пиксели*Кадры) : 0.108
Размер потока : 4,05 Гбайт (93%)
Заголовок : slaventi-69 ( R.G. HD-Films | 60 fps )
Библиотека кодирования : x264 core 130 r2273 b3065e6
Настройки программы : cabac=1 / ref=9 / deblock=1:-1:-1 / analyse=0x3:0x133 / me=umh / subme=9 / psy=1 / psy_rd=1.00:0.00 / mixed_ref=1 / me_range=32 / chroma_me=1 / trellis=2 / 8x8dct=1 / cqm=0 / deadzone=21,11 / fast_pskip=0 / chroma_qp_offset=-2 / threads=10 / lookahead_threads=2 / sliced_threads=0 / nr=0 / decimate=1 / interlaced=0 / bluray_compat=0 / constrained_intra=0 / bframes=5 / b_pyramid=2 / b_adapt=2 / b_bias=0 / direct=1 / weightb=1 / open_gop=0 / weightp=2 / keyint=600 / keyint_min=23 / scenecut=40 / intra_refresh=0 / rc=crf / mbtree=0 / crf=18.0 / qcomp=0.60 / qpmin=0 / qpmax=69 / qpstep=4 / ip_ratio=1.40 / pb_ratio=1.30 / aq=1:1.00
Язык : Chinese
Default : Да
Forced : Нет

Аудио
Идентификатор : 2
Формат : AC-3
Формат/Информация : Audio Coding 3
Коммерческое название : Dolby Digital
Идентификатор кодека : A_AC3
Продолжительность : 1 ч. 44 м.
Вид битрейта : Постоянный
Битрейт : 384 Кбит/сек
Каналы : 6 каналов
Channel layout : L R C LFE Ls Rs
Частота : 48,0 КГц
Частота кадров : 31,250 кадров/сек (1536 SPF)
Битовая глубина : 16 бит
Метод сжатия : С потерями
Размер потока : 286 Мбайт (6%)
Заголовок : DVO
Язык : Russian
ServiceKind/String : Complete Main
Default : Да
Forced : Нет

Текст #1
Идентификатор : 3
Формат : UTF-8
Идентификатор кодека : S_TEXT/UTF8
Идентификатор кодека/Информация : UTF-8 Plain Text
Продолжительность : 54 м. 16 с.
Битрейт : 12 бит/сек
ElementCount : 74
Размер потока : 5,13 Кбайт (0%)
Заголовок : unrated
Язык : Russian
Default : Да
Forced : Нет

Текст #2
Идентификатор : 4
Формат : UTF-8
Идентификатор кодека : S_TEXT/UTF8
Идентификатор кодека/Информация : UTF-8 Plain Text
Продолжительность : 1 ч. 41 м.
Битрейт : 54 бит/сек
ElementCount : 1038
Размер потока : 40,7 Кбайт (0%)
Заголовок : Eng (Full)
Язык : English
Default : Нет
Forced : Нет

Просьба к переливающим на другие сайты, в оформлении указывайте пожалуйста авторство группы R.G. HD-Films pb.wtf



Скачать Хитмэн через торрент http://lostpic.net/images/b47d1b18a55dc6029c574627d4848712.jpg Скачать фильм Хитмэн через торрент бесплантно в хорошем качестве Описание: В Гонг Конге объявился «Король убийц» — наемный убийца, который работает не из-за денег, и убирает только опасных преступников. ... 9.8 10 6
Торрент: Зарегистрирован [2020-07-09 16:31] · скачан: 91 раз
Статус: √ проверено
Размер: 4.33 GB
Как cкачать? Как скачать Хитмэн через торрент | UTorrent

28-11-2019 20:33  

Отключить всю рекламу на сайте

09-07-2020 20:44 Хитмэн Скачать торрент  

СПАСИБИЩЕ, так скоро вся фильмография с Джет Ли будет в коллекции! pb.wtf



10-07-2020 19:10 Хитмэн Скачать торрент  

Спасибо.Джет Ли красавчик, с ним плохих фильмов не видел.pb.wtf



    Дорогой пользователь! Огромная просьба, поблагодарите релизера, оцените раздачу и оставьте свои комментарий, если Вы скачали Хитмэн через торрент бесплатно! Внесите свою лепту в развитие PiratBit!
    Комментировать посты могут только пользователи прошедшие не сложную регистрацию
    Показать сообщения:    

    Хитмэн через торрент
    Скачать бесплатно Хитмэн
    Хитмэн скачать торрент
    Хитмэн смотреть онлайн
    Cкачать фильм Хитмэн бесплатно
    Хитмэн скачать торрент в хорошем качестве
    Хитмэн смотреть онлайн бесплатно в хорошем качестве


    Вы не можете начинать темы
    Вы не можете отвечать на сообщения
    Вы не можете редактировать свои сообщения
    Вы не можете удалять свои сообщения
    Вы не можете голосовать в опросах
    Вы не можете прикреплять файлы к сообщениям
    Вы можете скачивать файлы