Ссылка на приватное зеркало нашего сайта всего за 1$. Внимание количество ограничено!!!

2 сезон

iTunes

1 сезон

1

iTunes

iTunes

iTunes

1 сезон

RePack

30

ИГРА 18+

pack

ВАЖНО

!!Акция!!

Alien_RageХит недели

RePack

MK11
pack

Забери бонус

RePack

jed

!!Акция!!

Alien_Rage

RePack

fifa19

RePack

Assassins Creed: Odyssey

RePack

NEED FOR SPEED™ PAYBACK

4 сезон

9 сезон

Бесстыжие 9 сезон

Все сериалы

все сериалы на PB.wtf

RePack

FAR CRY 5
  

Грейхаунд / Greyhound (Аарон Шнайдер) [2020, Военный, боевик, история, биография, UHD WEB-DL-HEVC 2160p] DUB+MVO [HDRezka Studio] pb.wtf

Грейхаунд через торрент pb.wtf

Раздают: 2 [ 238 KB/s ]
Размер: 16.99 GB | Добавлен: 5 д. назад | Торрент скачан:26 раз
Скачать  

10-07-2020 11:58 Грейхаунд Скачать торрент  

Грейхаунд | Greyhound
Год выпуска: 2020
Страна: Китай, Канада, США
Студия: Bron Studios, Columbia Pictures Corporation, Creative Artists Agency (CAA), Creative Wealth Media Finance, Playtone
Жанр: Военный, боевик, история, биография
Продолжительность: 01:31:42
Перевод(ы):
#1: Дублированный
#2: Профессиональный многоголосый | HDRezka Studio
Субтитры: Русские (2 x Forced, Full), украинские (Full), английские

Режиссер: Аарон Шнайдер

rating


В ролях: Том Хэнкс, Элизабет Шу, Карл Глусман, Стивен Грэм, Том Бриттни, Девин Друид, Ли Норрис, Роб Морган, Мануэль Рульфо, Грэйсон Расселл

Описание: Февраль 1942 года, Северная Атлантика. Морской конвой с войсками и грузами для союзников под патрулированием ВВС США направляется в порт Ливерпуля. Войдя в недосягаемый для авиации сектор, известный как «чёрная яма», суда подвергаются нападению группы немецких подлодок. Капитану головного эсминца «Грейхаунд» Эрнсту Краузе, до этого не принимавшему участия в военных действиях, приходится руководить обороной и отбиваться от так называемой «волчьей стаи».

Качество: UHD WEB-DL-HEVC 2160p
Формат: MKV

Видео: 3840x1604 at 23.976 fps, MPEG-H HEVC HDR Video, 23900 kbps avg
Аудио #01: 48 kHz, E-AC3+Atmos, 5.1, 768 Kbps | Дублированный | RUS |
Аудио #02: 48 kHz, AC3, 5.1, 640 Kbps | Дублированный | RUS |
Аудио #03: 48 kHz, AC3, 5.1, 448 Kbps | Профессиональный многоголосый | RUS |
Аудио #04: 48 kHz, E-AC3+Atmos, 5.1, 768 Kbps | Оригинал | ENG |
скриншот  скриншот  скриншот  скриншот  скриншот  

General
Unique ID : 330123816103450068110740207462423926888 (0xF85B88C6808AE39B71E65DD553571868)
Complete name : D:Video111Greyhound.2020.D.MVO.WEB-DL.2160p.HDR.seleZen.mkv
Format : Matroska
Format version : Version 4
File size : 17.0 GiB
Duration : 1 h 31 min
Overall bit rate : 26.5 Mb/s
Movie name : Greyhound 2020 from селезень
Encoded date : UTC 2020-10-17 13:07:24
Writing application : mkvmerge v40.0.0 ('Old Town Road + Pony') 64-bit
Writing library : libebml v1.3.9 + libmatroska v1.5.2

Video
ID : 1
Format : HEVC
Format/Info : High Efficiency Video Coding
Format profile : Main 10@L5@High
HDR format : SMPTE ST 2086, HDR10 compatible
Codec ID : V_MPEGH/ISO/HEVC
Duration : 1 h 31 min
Bit rate : 23.9 Mb/s
Width : 3 840 pixels
Height : 1 604 pixels
Display aspect ratio : 2.40:1
Frame rate mode : Constant
Frame rate : 23.976 (23976/1000) FPS
Color space : YUV
Chroma subsampling : 4:2:0 (Type 2)
Bit depth : 10 bits
Bits/(Pixel*Frame) : 0.162
Stream size : 15.3 GiB (90%)
Language : English
Default : Yes
Forced : No
Color range : Limited
Color primaries : BT.2020
Transfer characteristics : PQ
Matrix coefficients : BT.2020 non-constant
Mastering display color pri: Display P3
Mastering display luminance: min: 0.0001 cd/m2, max: 1000 cd/m2
Maximum Content Light Level: 1044 cd/m2
Maximum Frame-Average Light: 217 cd/m2

Audio #1
ID : 2
Format : E-AC-3 JOC
Format/Info : Enhanced AC-3 with Joint Object Coding
Commercial name : Dolby Digital Plus with Dolby Atmos
Codec ID : A_EAC3
Duration : 1 h 31 min
Bit rate mode : Constant
Bit rate : 768 kb/s
Channel(s) : 6 channels
Channel layout : L R C LFE Ls Rs
Sampling rate : 48.0 kHz
Frame rate : 31.250 FPS (1536 SPF)
Compression mode : Lossy
Stream size : 504 MiB (3%)
Title : Dub
Language : Russian
Service kind : Complete Main
Default : Yes
Forced : Yes
Complexity index : 16
Number of dynamic objects : 15
Bed channel count : 1 channel
Bed channel configuration : LFE

Audio #2
ID : 3
Format : AC-3
Format/Info : Audio Coding 3
Commercial name : Dolby Digital
Codec ID : A_AC3
Duration : 1 h 31 min
Bit rate mode : Constant
Bit rate : 640 kb/s
Channel(s) : 6 channels
Channel layout : L R C LFE Ls Rs
Sampling rate : 48.0 kHz
Frame rate : 31.250 FPS (1536 SPF)
Compression mode : Lossy
Stream size : 420 MiB (2%)
Title : Dub
Language : Russian
Service kind : Complete Main
Default : No
Forced : No

Audio #3
ID : 4
Format : AC-3
Format/Info : Audio Coding 3
Commercial name : Dolby Digital
Codec ID : A_AC3
Duration : 1 h 31 min
Bit rate mode : Constant
Bit rate : 448 kb/s
Channel(s) : 6 channels
Channel layout : L R C LFE Ls Rs
Sampling rate : 48.0 kHz
Frame rate : 31.250 FPS (1536 SPF)
Compression mode : Lossy
Stream size : 294 MiB (2%)
Title : MVO [HDRezka Studio]
Language : Russian
Service kind : Complete Main
Default : No
Forced : No

Audio #4
ID : 5
Format : E-AC-3 JOC
Format/Info : Enhanced AC-3 with Joint Object Coding
Commercial name : Dolby Digital Plus with Dolby Atmos
Codec ID : A_EAC3
Duration : 1 h 31 min
Bit rate mode : Constant
Bit rate : 768 kb/s
Channel(s) : 6 channels
Channel layout : L R C LFE Ls Rs
Sampling rate : 48.0 kHz
Frame rate : 31.250 FPS (1536 SPF)
Compression mode : Lossy
Stream size : 504 MiB (3%)
Title : Original
Language : English
Service kind : Complete Main
Default : No
Forced : No
Complexity index : 16
Number of dynamic objects : 15
Bed channel count : 1 channel
Bed channel configuration : LFE

Text #1
ID : 6
Format : UTF-8
Codec ID : S_TEXT/UTF8
Codec ID/Info : UTF-8 Plain Text
Duration : 1 h 30 min
Bit rate : 6 b/s
Count of elements : 77
Stream size : 4.39 KiB (0%)
Title : Forced v.1
Language : Russian
Default : Yes
Forced : Yes

Text #2
ID : 7
Format : UTF-8
Codec ID : S_TEXT/UTF8
Codec ID/Info : UTF-8 Plain Text
Duration : 1 h 29 min
Bit rate : 4 b/s
Count of elements : 61
Stream size : 3.26 KiB (0%)
Title : Forced v.2
Language : Russian
Default : No
Forced : No

Text #3
ID : 8
Format : UTF-8
Codec ID : S_TEXT/UTF8
Codec ID/Info : UTF-8 Plain Text
Duration : 1 h 30 min
Bit rate : 94 b/s
Count of elements : 1095
Stream size : 62.9 KiB (0%)
Title : Full
Language : Russian
Default : No
Forced : No

Text #4
ID : 9
Format : UTF-8
Codec ID : S_TEXT/UTF8
Codec ID/Info : UTF-8 Plain Text
Duration : 1 h 30 min
Bit rate : 89 b/s
Count of elements : 1095
Stream size : 59.6 KiB (0%)
Title : Full
Language : Ukrainian
Default : No
Forced : No

Text #5
ID : 10
Format : UTF-8
Codec ID : S_TEXT/UTF8
Codec ID/Info : UTF-8 Plain Text
Duration : 1 h 20 min
Bit rate : 66 b/s
Count of elements : 1033
Stream size : 38.8 KiB (0%)
Title : Full
Language : English
Default : No
Forced : No

Text #6
ID : 11
Format : UTF-8
Codec ID : S_TEXT/UTF8
Codec ID/Info : UTF-8 Plain Text
Duration : 1 h 20 min
Bit rate : 72 b/s
Count of elements : 1105
Stream size : 42.3 KiB (0%)
Title : SDH
Language : English
Default : No
Forced : No

pb.wtf



Скачать Грейхаунд через торрент https://d.radikal.ru/d21/2007/89/9225c5f80b64.jpg Скачать фильм Грейхаунд через торрент бесплантно в хорошем качестве Описание: Февраль 1942 года, Северная Атлантика. Морской конвой с войсками и грузами для союзников под патрулированием ВВС США направляется ... 9.6 10 36
Торрент: Зарегистрирован [2020-10-17 13:22] · скачан: 26 раз
Статус: √ проверено
Размер: 16.99 GB
Как cкачать? Как скачать Грейхаунд через торрент | qTorrent

% Раздел Тема Автор DL S | L
Фильмы 2019-2020 [DVDrip, WEB-DLRip, HDrip] (DUB, MVO) [ 1.58 GB ] Грейхаунд / Greyhound [2020 Военный история биография WEB-DLRip-AVC] MVO [HDRezka Studio] - ExKinoRay Enigma2010 Скачать
148 | 14
Фильмы 2019-2020 [DVDrip, WEB-DLRip, HDrip] (DUB, MVO) [ 1.46 GB ] Грейхаунд / Greyhound [2020 Военный история биография WEB-DLRip] DUB bober100 Скачать
14 | 1
Фильмы (WEB-DL 720p, 1080p) [ 8.13 GB ] Грейхаунд / Greyhound [2020 Военный история биография WEB-DL 1080p] DUB+MVO [HDRezka Studio] bober100 Скачать
26 | 2
Фильмы 2019-2020 [DVDrip, WEB-DLRip, HDrip] (DUB, MVO) [ 746 MB ] Грейхаунд / Greyhound [2020 Военный история биография WEB-DLRip] DUB bober100 Скачать
3 | 0
Фильмы (WEB-DL 720p, 1080p) [ 2.36 GB ] Грейхаунд / Greyhound [2020 военный история биография WEBRip 720p] [MVO] killermax2013 Скачать
13 | 0
Фильмы 2019-2020 [DVDrip, WEB-DLRip, HDrip] (DUB, MVO) [ 1.46 GB ] Грейхаунд / Greyhound [2020 Военный история биография WEB-DLRip] MVO [HDRezka Studio] bober100 Скачать
8 | 0
T Ultra HD (UHD: 2K, 4K, 8K) — видео сверхвысокой чёткости [ 15.92 GB ] Грейхаунд / Greyhound [2020 Военный история биография UHD WEB-DL 2160p] [MVO] killermax2013 Скачать
10 | 0


Последний раз редактировалось: bober100 (2020-10-17 13:21), всего редактировалось 4 раз(а)

28-11-2019 20:33  

Отключить всю рекламу на сайте

    Дорогой пользователь! Огромная просьба, поблагодарите релизера, оцените раздачу и оставьте свои комментарий, если Вы скачали Грейхаунд через торрент бесплатно! Внесите свою лепту в развитие PiratBit!
    Комментировать посты могут только пользователи прошедшие не сложную регистрацию
    Показать сообщения:    

    Грейхаунд через торрент
    Скачать бесплатно Грейхаунд
    Грейхаунд скачать торрент
    Грейхаунд смотреть онлайн
    Cкачать фильм Грейхаунд бесплатно
    Грейхаунд скачать торрент в хорошем качестве
    Грейхаунд смотреть онлайн бесплатно в хорошем качестве


    Вы не можете начинать темы
    Вы не можете отвечать на сообщения
    Вы не можете редактировать свои сообщения
    Вы не можете удалять свои сообщения
    Вы не можете голосовать в опросах
    Вы не можете прикреплять файлы к сообщениям
    Вы можете скачивать файлы