Ссылка на приватное зеркало нашего сайта всего за 1$. Внимание количество ограничено!!!

2 сезон

iTunes

1 сезон

1

iTunes

iTunes

iTunes

1 сезон

RePack

30

ИГРА 18+

pack

ВАЖНО

!!Акция!!

Alien_RageХит недели

RePack

MK11
pack

Забери бонус

RePack

jed

!!Акция!!

Alien_Rage

RePack

fifa19

RePack

Assassins Creed: Odyssey

RePack

NEED FOR SPEED™ PAYBACK

4 сезон

9 сезон

Бесстыжие 9 сезон

Все сериалы

все сериалы на PB.wtf

RePack

FAR CRY 5
  

Чёрная Пантера / Black Panther (Райан Куглер) [2018 г., Фантастика, боевик, приключения, Hybrid 720p / 60 FPS, Дубляж] (IMAX Edition) от R.G. HD-Films pb.wtf

Чёрная Пантера через торрент pb.wtf

Раздают: 2 [ 0 KB/s ]
Размер: 5.5 GB | Добавлен: 3 мес. 11 д. назад | Торрент скачан:87 раз
Скачать  

10-07-2020 16:34 Чёрная Пантера Скачать торрент  

Чёрная Пантера / Black Panther
Год выпуска: 2018
Страна: США
Жанр: Фантастика, боевик, приключения
Продолжительность: 02:14:33
Перевод: Дубляж
Субтитры: Russian, English

Режиссер: Райан Куглер

Бюджет: $200 000 000
Премьера в мире: 29 января 2018

rating

В ролях: Чэдвик Боузмэн, Майкл Б. Джордан, Лупита Нионго, Данай Джекесай Гурира, Мартин Фриман, Энди Серкис, Дэниэл Калуя, Летишиа Райт, Уинстон Дьюк, Стерлинг К. Браун, Анджела Бассетт

Описание: С первого взгляда можно решить, что Ваканда — обычная территория дикой Африки, но это не так. Здесь, в недрах пустынных земель, скрываются залежи уникального металла, способного поглощать вибрацию. Многие пытались добраться до него, разоряя всё на своём пути и принося смерть аборигенам, но каждый раз таинственный дух саванны — Чёрная Пантера — вставал на защиту угнетённых.
Спустя много лет беда снова приходит в Ваканду, и в этот раз враг заручился поддержкой современных технологий. Когда шансов почти не остаётся, Т`Чалла, молодой принц Ваканды, узнаёт, что именно ему предстоит возродить легенду и продолжить вечную борьбу, надев маску Чёрной Пантеры.

Доп. информация: IMAX версия без плавающего кропа с левой стороны. Название фильма локализовано.
Релиз: BLUEBIRD DoroshDan


Качество: Hybrid 720p / 60 FPS
Формат: MKV
Видео кодек: H.264
Аудио кодек: AC3
Видео: x264, 1280 x 720 ( 16:9 ), 5467 kbps, 60,000 fps, ( 0.099 bpp)
Аудио#1: Русский, AC-3, 48.0 KHz, 6 ch, 384 Kbps Dub
Релиз от:

скриншот   скриншот   скриншот   скриншот   скриншот   скриншот  Автор рипа: slaventi-69
x264 [info]: frame I:2429 Avg QP:14.18 size: 90266
x264 [info]: frame P:110158 Avg QP:15.23 size: 23268
x264 [info]: frame B:371316 Avg QP:17.63 size: 7350
x264 [info]: consecutive B-frames: 2.0% 1.7% 6.5% 12.6% 66.0% 11.2%


Общее
Уникальный идентификатор : 178007495765937365867540409055341224401 (0x85EAFF23EFCA8CF08608D6D5D3D0A1D1)
Полное имя : F:\Black.Panther.(2018).Hybrid.720p.(60 Fps).(IMAX Edition).mkv
Формат : Matroska
Версия формата : Version 4
Размер файла : 5,50 Гбайт
Продолжительность : 2 ч. 14 м.
Общий поток : 5855 Кбит/сек
Название фильма : Чёрная Пантера / Black Panther (2018) Hybrid 720p (60 Fps) | IMAX Edition
Дата кодирования : UTC 2020-07-10 15:46:48
Программа кодирования : mkvmerge v12.0.0 ('Trust / Lust') 64bit
Библиотека кодирования : libebml v1.3.4 + libmatroska v1.4.5

Видео
Идентификатор : 1
Формат : AVC
Формат/Информация : Advanced Video Codec
Профиль формата : High@L4.1
Настройки формата : CABAC / 9 Ref Frames
Параметр CABAC формата : Да
Параметр RefFrames формата : 9 кадров
Идентификатор кодека : V_MPEG4/ISO/AVC
Продолжительность : 2 ч. 14 м.
Битрейт : 5467 Кбит/сек
Ширина : 1280 пикселей
Высота : 720 пикселей
Соотношение сторон : 16:9
Режим частоты кадров : Постоянный
Частота кадров : 60,000 кадров/сек
Цветовое пространство : YUV
Субдискретизация насыщенности : 4:2:0
Битовая глубина : 8 бит
Тип развёртки : Прогрессивная
Бит/(Пиксели*Кадры) : 0.099
Размер потока : 5,13 Гбайт (93%)
Заголовок : slaventi-69 ( R.G. HD-Films | 60 fps )
Библиотека кодирования : x264 core 130 r2273 b3065e6
Настройки программы : cabac=1 / ref=9 / deblock=1:-1:-1 / analyse=0x3:0x133 / me=umh / subme=9 / psy=1 / psy_rd=1.00:0.00 / mixed_ref=1 / me_range=32 / chroma_me=1 / trellis=2 / 8x8dct=1 / cqm=0 / deadzone=21,11 / fast_pskip=0 / chroma_qp_offset=-2 / threads=10 / lookahead_threads=2 / sliced_threads=0 / nr=0 / decimate=1 / interlaced=0 / bluray_compat=0 / constrained_intra=0 / bframes=5 / b_pyramid=2 / b_adapt=2 / b_bias=0 / direct=1 / weightb=1 / open_gop=0 / weightp=2 / keyint=600 / keyint_min=23 / scenecut=40 / intra_refresh=0 / rc=crf / mbtree=0 / crf=16.2 / qcomp=0.60 / qpmin=0 / qpmax=69 / qpstep=4 / ip_ratio=1.40 / pb_ratio=1.30 / aq=1:1.00
Язык : English
Default : Да
Forced : Нет

Аудио
Идентификатор : 2
Формат : AC-3
Формат/Информация : Audio Coding 3
Коммерческое название : Dolby Digital
Идентификатор кодека : A_AC3
Продолжительность : 2 ч. 14 м.
Вид битрейта : Постоянный
Битрейт : 384 Кбит/сек
Каналы : 6 каналов
Channel layout : L R C LFE Ls Rs
Частота : 48,0 КГц
Частота кадров : 31,250 кадров/сек (1536 SPF)
Битовая глубина : 16 бит
Метод сжатия : С потерями
Размер потока : 369 Мбайт (7%)
Заголовок : Dub
Язык : Russian
ServiceKind/String : Complete Main
Default : Да
Forced : Нет

Текст #1
Идентификатор : 3
Формат : UTF-8
Идентификатор кодека : S_TEXT/UTF8
Идентификатор кодека/Информация : UTF-8 Plain Text
Продолжительность : 2 ч. 12 м.
Битрейт : 2 бит/сек
ElementCount : 77
Размер потока : 2,20 Кбайт (0%)
Заголовок : Forced
Язык : Russian
Default : Да
Forced : Нет

Текст #2
Идентификатор : 4
Формат : UTF-8
Идентификатор кодека : S_TEXT/UTF8
Идентификатор кодека/Информация : UTF-8 Plain Text
Продолжительность : 2 ч. 14 м.
Битрейт : 64 бит/сек
ElementCount : 1460
Размер потока : 63,8 Кбайт (0%)
Заголовок : Full
Язык : Russian
Default : Нет
Forced : Нет

Текст #3
Идентификатор : 5
Формат : UTF-8
Идентификатор кодека : S_TEXT/UTF8
Идентификатор кодека/Информация : UTF-8 Plain Text
Продолжительность : 2 ч. 14 м.
Битрейт : 41 бит/сек
ElementCount : 1581
Размер потока : 40,4 Кбайт (0%)
Язык : English
Default : Нет
Forced : Нет

Меню
00:00:00.000 : en:00:00:00.000
00:06:56.291 : en:00:06:56.291
00:12:02.805 : en:00:12:02.805
00:19:12.360 : en:00:19:12.360
00:28:32.961 : en:00:28:32.961
00:33:11.698 : en:00:33:11.698
00:40:57.497 : en:00:40:57.497
00:48:34.036 : en:00:48:34.036
00:53:46.098 : en:00:53:46.098
01:01:57.339 : en:01:01:57.339
01:08:33.026 : en:01:08:33.026
01:16:46.769 : en:01:16:46.769
01:22:24.022 : en:01:22:24.022
01:31:21.434 : en:01:31:21.434
01:41:15.361 : en:01:41:15.361
01:50:56.483 : en:01:50:56.483
01:59:16.941 : en:01:59:16.941
02:02:43.648 : en:02:02:43.648

Просьба к переливающим на другие сайты, в оформлении указывайте пожалуйста авторство группы R.G. HD-Films pb.wtf



Скачать Чёрная Пантера через торрент http://img12.lostpic.net/2018/05/06/4c30725aac5025858eb396b5a6e1d5cb.png Скачать фильм Чёрная Пантера через торрент бесплантно в хорошем качестве Описание: С первого взгляда можно решить, что Ваканда — обычная территория дикой Африки, но это не так. Здесь, в недрах пустынных земель, ... 9.2 10 11
Info! Золотая раздача, скачанное не засчитывается.
Торрент: Зарегистрирован [2020-07-10 16:34] · скачан: 87 раз
Статус: √ проверено
Размер: 5.5 GB
Как cкачать? Как скачать Чёрная Пантера через торрент | qTorrent

28-11-2019 20:33  

Отключить всю рекламу на сайте

    Дорогой пользователь! Огромная просьба, поблагодарите релизера, оцените раздачу и оставьте свои комментарий, если Вы скачали Чёрная Пантера через торрент бесплатно! Внесите свою лепту в развитие PiratBit!
    Комментировать посты могут только пользователи прошедшие не сложную регистрацию
    Показать сообщения:    

    Чёрная Пантера через торрент
    Скачать бесплатно Чёрная Пантера
    Чёрная Пантера скачать торрент
    Чёрная Пантера смотреть онлайн
    Cкачать фильм Чёрная Пантера бесплатно
    Чёрная Пантера скачать торрент в хорошем качестве
    Чёрная Пантера смотреть онлайн бесплатно в хорошем качестве


    Вы не можете начинать темы
    Вы не можете отвечать на сообщения
    Вы не можете редактировать свои сообщения
    Вы не можете удалять свои сообщения
    Вы не можете голосовать в опросах
    Вы не можете прикреплять файлы к сообщениям
    Вы можете скачивать файлы