Всегда рабочее зеркало без VPN и Proxy просто перед .vidak.icu напиши любое слово или цифру, Пример http://kxrv.vidak.icu

MVO

Лицензия

1 сезон

1

1 сезон

iTunes

1 сезон

13

1 сезон

Deluxe

pack

Рекомендуем

Repack

30

ВАЖНО

RePack

MK11

RePack

jed

RePack

fifa19

RePack

RDR2

RePack

NEED FOR SPEED™ PAYBACK

Кинопоиск HD

6 сезон

 Острые козырьки 6 сезон

Все сериалы

все сериалы на PB.wtf

RePack

FAR CRY 5
  
Magnet ссылка

Чёрная Пантера / Black Panther (Райан Куглер) [2018 г., Фантастика, боевик, приключения, Hybrid 720p / 60 FPS, Дубляж] (IMAX Edition) от R.G. HD-Films pb.wtf

Чёрная Пантера через торрент pb.wtf

Раздают: 1 [ 254 KB/s ]
Размер: 5.85 GB | Добавлен: 7 мес. назад | Торрент скачан:67 раз
Смотреть онлайн Чёрная Пантера | Скачать    Ребята, помогите собрать деньги на оплату серверов!!!

10-07-2020 16:34 Чёрная Пантера Скачать торрент  

Чёрная Пантера / Black Panther
Год выпуска: 2018
Страна: США
Жанр: Фантастика, боевик, приключения
Продолжительность: 02:14:33
Перевод: Дубляж
Субтитры: Russian ( fors вшитые + полные ), English

Режиссер: Райан Куглер

Бюджет: $200 000 000
Премьера в мире: 29 января 2018

rating

В ролях: Чэдвик Боузмэн, Майкл Б. Джордан, Лупита Нионго, Данай Джекесай Гурира, Мартин Фриман, Энди Серкис, Дэниэл Калуя, Летишиа Райт, Уинстон Дьюк, Стерлинг К. Браун, Анджела Бассетт

Описание: С первого взгляда можно решить, что Ваканда — обычная территория дикой Африки, но это не так. Здесь, в недрах пустынных земель, скрываются залежи уникального металла, способного поглощать вибрацию. Многие пытались добраться до него, разоряя всё на своём пути и принося смерть аборигенам, но каждый раз таинственный дух саванны — Чёрная Пантера — вставал на защиту угнетённых.
Спустя много лет беда снова приходит в Ваканду, и в этот раз враг заручился поддержкой современных технологий. Когда шансов почти не остаётся, Т`Чалла, молодой принц Ваканды, узнаёт, что именно ему предстоит возродить легенду и продолжить вечную борьбу, надев маску Чёрной Пантеры.

Доп. информация: IMAX версия без плавающего кропа с левой стороны. Название фильма локализовано.
Релиз: BLUEBIRD DoroshDan


Качество: Hybrid 720p / 60 FPS
Формат: MKV
Видео кодек: H.264
Аудио кодек: AC3
Видео: x264, 1280 x 720 ( 16:9 ), 5838 kbps, 60,000 fps, ( 0.106 bpp)
Аудио#1: Русский, AC-3, 48.0 KHz, 6 ch, 384 Kbps Dub
Релиз от: Автор рипа: slaventi-69

x264 [info]: profile High, level 4.1
x264 [info]: frame I:2402 Avg QP:14.29 size: 89226
x264 [info]: frame P:110893 Avg QP:15.35 size: 23057
x264 [info]: frame B:370608 Avg QP:17.69 size: 8403
x264 [info]: consecutive B-frames: 2.0% 1.9% 7.0% 12.9% 65.2% 11.0%

Общее
Уникальный идентификатор : 221167038650833972886385952272489635021 (0xA66338E50AD7FE3ECDE7BB941297DCCD)
Полное имя : F:\60 FPS\Black.Panther.(2018).Hybrid.720p.(60 Fps).(IMAX Edition).mkv
Формат : Matroska
Версия формата : Version 4
Размер файла : 5,85 Гбайт
Продолжительность : 2 ч. 14 м.
Общий поток : 6226 Кбит/сек
Название фильма : Чёрная Пантера / Black Panther (2018) Hybrid 720p (60 Fps) | IMAX Edition
Дата кодирования : UTC 2021-11-17 12:53:19
Программа кодирования : mkvmerge v56.1.0 ('My Friend') 32-bit
Библиотека кодирования : libebml v1.4.2 + libmatroska v1.6.4

Видео
Идентификатор : 1
Формат : AVC
Формат/Информация : Advanced Video Codec
Профиль формата : [email protected]
Настройки формата : CABAC / 9 Ref Frames
Параметр CABAC формата : Да
Параметр RefFrames формата : 9 кадров
Идентификатор кодека : V_MPEG4/ISO/AVC
Продолжительность : 2 ч. 14 м.
Битрейт : 5838 Кбит/сек
Ширина : 1280 пикселей
Высота : 720 пикселей
Соотношение сторон : 16:9
Режим частоты кадров : Постоянный
Частота кадров : 60,000 кадров/сек
Цветовое пространство : YUV
Субдискретизация насыщенности : 4:2:0
Битовая глубина : 8 бит
Тип развёртки : Прогрессивная
Бит/(Пиксели*Кадры) : 0.106
Размер потока : 5,48 Гбайт (94%)
Заголовок : slaventi-69 ( R.G. HD-Films | 60 fps )
Библиотека кодирования : x264 core 130 r2273 b3065e6
Настройки программы : cabac=1 / ref=10 / deblock=1:-2:-2 / analyse=0x3:0x133 / me=umh / subme=9 / psy=1 / psy_rd=1.00:0.00 / mixed_ref=1 / me_range=30 / chroma_me=1 / trellis=2 / 8x8dct=1 / cqm=0 / deadzone=21,11 / fast_pskip=0 / chroma_qp_offset=-2 / threads=10 / lookahead_threads=4 / sliced_threads=0 / nr=0 / decimate=1 / interlaced=0 / bluray_compat=0 / constrained_intra=0 / bframes=5 / b_pyramid=1 / b_adapt=2 / b_bias=0 / direct=2 / weightb=1 / open_gop=0 / weightp=2 / keyint=600 / keyint_min=23 / scenecut=40 / intra_refresh=0 / rc=crf / mbtree=0 / crf=16.3 / qcomp=0.60 / qpmin=0 / qpmax=69 / qpstep=4 / ip_ratio=1.40 / pb_ratio=1.30 / aq=1:1.00
Язык : English
Default : Да
Forced : Нет

Аудио
Идентификатор : 2
Формат : AC-3
Формат/Информация : Audio Coding 3
Коммерческое название : Dolby Digital
Идентификатор кодека : A_AC3
Продолжительность : 2 ч. 14 м.
Вид битрейта : Постоянный
Битрейт : 384 Кбит/сек
Каналы : 6 каналов
Channel layout : L R C LFE Ls Rs
Частота : 48,0 КГц
Частота кадров : 31,250 кадров/сек (1536 SPF)
Битовая глубина : 16 бит
Метод сжатия : С потерями
Размер потока : 369 Мбайт (6%)
Заголовок : Dub
Язык : Russian
ServiceKind/String : Complete Main
Default : Да
Forced : Нет

Текст #1
Идентификатор : 3
Формат : UTF-8
Идентификатор кодека : S_TEXT/UTF8
Идентификатор кодека/Информация : UTF-8 Plain Text
Продолжительность : 2 ч. 14 м.
Битрейт : 64 бит/сек
ElementCount : 1460
Размер потока : 63,8 Кбайт (0%)
Заголовок : full
Язык : Russian
Default : Нет
Forced : Нет

Текст #2
Идентификатор : 4
Формат : UTF-8
Идентификатор кодека : S_TEXT/UTF8
Идентификатор кодека/Информация : UTF-8 Plain Text
Продолжительность : 2 ч. 14 м.
Битрейт : 41 бит/сек
ElementCount : 1581
Размер потока : 40,4 Кбайт (0%)
Язык : English
Default : Нет
Forced : Нет

Меню
00:00:00.000 : 00:00:00.000
00:06:56.291 : 00:06:56.291
00:12:02.805 : 00:12:02.805
00:19:12.360 : 00:19:12.360
00:28:32.961 : 00:28:32.961
00:33:11.698 : 00:33:11.698
00:40:57.497 : 00:40:57.497
00:48:34.036 : 00:48:34.036
00:53:46.098 : 00:53:46.098
01:01:57.339 : 01:01:57.339
01:08:33.026 : 01:08:33.026
01:16:46.769 : 01:16:46.769
01:22:24.022 : 01:22:24.022
01:31:21.434 : 01:31:21.434
01:41:15.361 : 01:41:15.361
01:50:56.483 : 01:50:56.483
01:59:16.941 : 01:59:16.941
02:02:43.648 : 02:02:43.648

Просьба к переливающим на другие сайты, в оформлении указывайте пожалуйста авторство группы R.G. HD-Films pb.wtf



Скачать Чёрная Пантера через торрент https://i111.fastpic.ru/big/2020/0429/d7/6c144b2071a3ab5987e92d75dea7f7d7.jpg Скачать, смотреть онлайн Чёрная Пантера бесплантно в хорошем качестве Описание: С первого взгляда можно решить, что Ваканда — обычная территория дикой Африки, но это не так. Здесь, в недрах пустынных земель, ... 10 10 5
Info! Золотая раздача, скачанное не засчитывается.
Торрент: Зарегистрирован [2021-11-17 13:13] · скачан: 67 раз
Статус: √ проверено
Размер: 5.85 GB
Как cкачать? Как скачать Чёрная Пантера через торрент | UTorrent

28-11-2019 20:33  

Отключить всю рекламу на сайте

19-11-2021 11:01 Чёрная Пантера Скачать торрент  

децкое кено, да?pb.wtf



    Дорогой пользователь! Огромная просьба, поблагодарите релизера, оцените раздачу и оставьте свои комментарий, если Вы скачали Чёрная Пантера через торрент бесплатно!
    Комментировать посты могут только пользователи прошедшие не сложную регистрацию
    Показать сообщения:    

    Чёрная Пантера через торрент
    Скачать бесплатно Чёрная Пантера
    Чёрная Пантера скачать торрент
    Чёрная Пантера смотреть онлайн
    Cкачать фильм Чёрная Пантера бесплатно
    Чёрная Пантера скачать торрент в хорошем качестве
    Чёрная Пантера смотреть онлайн бесплатно в хорошем качестве


    Вы не можете начинать темы
    Вы не можете отвечать на сообщения
    Вы не можете редактировать свои сообщения
    Вы не можете удалять свои сообщения
    Вы не можете голосовать в опросах
    Вы не можете прикреплять файлы к сообщениям
    Вы можете скачивать файлы