2 сезон

iTunes

MVO

1

2 сезон

iTunes

iTunes

1 сезон

RePack

30

Ultimate

ВАЖНО

ИГРА 18+

pack

RePack

MK11
pack

Легкие деньги

RePack

jed

RePack

fifa19

RePack

RDR2

RePack

NEED FOR SPEED™ PAYBACK

4 сезон

9 сезон

Бесстыжие 9 сезон

Все сериалы

все сериалы на PB.wtf

RePack

FAR CRY 5

Anonymous, доброй ночи, мы не успеваем собрать деньги на оплату серверов за декабрь и январь, помогите нам пожалуйста в это трудное время. В качестве благодарности мы отключим Вам всю рекламу на сайте (укажите свой ник в строку Ваше имя)!

×
  
Magnet ссылка

Поезд смерти / D-Railed (Дэйл Фабригар) [2018, Ужасы, фантастика, боевик, триллер, детектив, приключения, BDRip-AVC] MVO [iTunes] pb.wtf

Поезд смерти через торрент pb.wtf

Размер: 1.42 GB | Добавлен: 6 мес. назад | Торрент скачан:70 раз
Скачать  

10-07-2020 19:53 Поезд смерти Скачать торрент  

Поезд смерти | D-Railed
Год выпуска: 2018
Страна: США
Выпущено: Suzanne DeLaurentiis Productions
Жанр: Ужасы, фантастика, боевик, триллер, детектив, приключения
Продолжительность: 01:20:23
Перевод: Профессиональный (многоголосый) | iTunes
Субтитры: Aнглийские (Full)

Режиссер: Дэйл Фабригар

rating

В ролях: Лэнс Хенриксен, Франк Ламерс, Тоня Кэй, Джек Беттс, Даниэль О'Рейли, Шаэ Смолик, Летисия ЛаБелль, Эверетт Уоллин, Грегг Кристи, Бри Маттсон

Описание: Женщина садится в поезд, который посреди ночи сходит с рельсов в озеро. Как и другие выжившие, она оказываются в ловушке среди затонувших обломков. Пассажиры обнаруживают, что нечто над поверхностью гораздо страшнее, чем они предполагали, и им придется бороться против смертоносного хищника, решившего убить их одного за другим.

Качество: BDRip-AVC
Формат: MKV

Видео: 1024x432 (2, 40:1), 23.976 fps, MPEG-4 AVC ~ 2148 Kbps avg, 0.203 bit/pixel
Аудио: AC3, 48 kHz, 6 ch, ~384.00 kbps avg | русский | iTunes
скриншот  скриншот  скриншот  скриншот  скриншот  

Общее
Уникальный идентификатор : 295727931988838312888120727961255127591 (0xDE7B20C20BAF6229870F3E6E08F1AA27)
Полное имя : D-Railed.2018.iT.BDRip.1.42Gb.x264.mkv
Формат : Matroska
Версия формата : Version 4
Размер файла : 1, 42 Гбайт
Продолжительность : 1 ч. 20 м.
Общий поток : 2 530 Кбит/сек
Название фильма : Поезд смерти / D-Railed (2018)
Дата кодирования : UTC 2020-07-10 14:11:07
Программа кодирования : mkvmerge v47.0.0 ('Black Flag') 64-bit
Библиотека кодирования : libebml v1.3.10 + libmatroska v1.5.2
Обложка : Yes
Attachments : cover.jpg

Видео
Идентификатор : 1
Формат : AVC
Формат/Информация : Advanced Video Codec
Профиль формата : High@L4.1
Настройки формата : CABAC / 10 Ref Frames
Параметр CABAC формата : Да
Параметр RefFrames формата : 10 кадров
Идентификатор кодека : V_MPEG4/ISO/AVC
Продолжительность : 1 ч. 20 м.
Битрейт : 2 148 Кбит/сек
Ширина : 1 024 пикселя
Высота : 432 пикселя
Соотношение сторон : 2, 40:1
Режим частоты кадров : Постоянный
Частота кадров : 23, 976 (23976/1000) кадра/сек
Цветовое пространство : YUV
Субдискретизация насыщенности : 4:2:0
Битовая глубина : 8 бит
Тип развёртки : Прогрессивная
Бит/(Пиксели*Кадры) : 0.203
Размер потока : 1, 20 Гбайт (85%)
Заголовок : #stillet
Библиотека кодирования : x264 core 152 r2851bm ba24899
Настройки программы : cabac=1 / ref=10 / deblock=1:-2:-2 / analyse=0x3:0x113 / me=umh / subme=10 / psy=1 / psy_rd=1.00:0.15 / mixed_ref=1 / me_range=32 / chroma_me=1 / trellis=2 / 8x8dct=1 / cqm=0 / deadzone=21, 11 / fast_pskip=0 / chroma_qp_offset=-3 / threads=12 / lookahead_threads=3 / sliced_threads=0 / nr=0 / decimate=0 / interlaced=0 / bluray_compat=0 / constrained_intra=0 / bframes=10 / b_pyramid=2 / b_adapt=2 / b_bias=0 / direct=3 / weightb=1 / open_gop=0 / weightp=2 / keyint=240 / keyint_min=23 / scenecut=40 / intra_refresh=0 / rc=2pass / mbtree=0 / bitrate=2148 / ratetol=1.0 / qcomp=0.60 / qpmin=0 / qpmax=69 / qpstep=4 / cplxblur=20.0 / qblur=0.5 / ip_ratio=1.40 / pb_ratio=1.30 / aq=1:1.00
Язык : English
Default : Да
Forced : Нет

Аудио
Идентификатор : 2
Формат : AC-3
Формат/Информация : Audio Coding 3
Коммерческое название : Dolby Digital
Идентификатор кодека : A_AC3
Продолжительность : 1 ч. 20 м.
Вид битрейта : Постоянный
Битрейт : 384 Кбит/сек
Каналы : 6 каналов
Channel layout : L R C LFE Ls Rs
Частота : 48, 0 КГц
Частота кадров : 31, 250 кадров/сек (1536 SPF)
Метод сжатия : С потерями
Размер потока : 221 Мбайт (15%)
Заголовок : MVO | iTunes
Язык : Russian
Default : Да
Forced : Нет

Текст
Идентификатор : 3
Формат : UTF-8
Идентификатор кодека : S_TEXT/UTF8
Идентификатор кодека/Информация : UTF-8 Plain Text
Продолжительность : 1 ч. 15 м.
Битрейт : 55 бит/сек
Count of elements : 1080
Размер потока : 30, 6 Кбайт (0%)
Заголовок : Full
Язык : English
Default : Нет
Forced : Нет

Меню
00:00:00.000 : en:Chapter 01
00:06:14.165 : en:Chapter 02
00:14:12.852 : en:Chapter 03
00:28:42.137 : en:Chapter 04
00:40:36.225 : en:Chapter 05
00:52:47.414 : en:Chapter 06
01:01:33.690 : en:Chapter 07
01:08:55.089 : en:Chapter 08
01:20:22.484 : en:Chapter 09

pb.wtf



Скачать Поезд смерти через торрент https://d.radikal.ru/d42/2005/55/0a665b9a14d8.png Скачать фильм Поезд смерти через торрент бесплантно в хорошем качестве Описание: Женщина садится в поезд, который посреди ночи сходит с рельсов в озеро. Как и другие выжившие, она оказываются в ловушке среди ... 10 10 5
Торрент: Зарегистрирован [2020-07-10 19:53] · скачан: 70 раз
Статус: √ проверено
Размер: 1.42 GB
Как cкачать? Как скачать Поезд смерти через торрент | UTorrent

% Раздел Тема Автор DL S | L
Фильмы [HD 720p, 1080p] (Хороший звук DUB, MVO) [ 7.13 GB ] Поезд смерти / D-Railed [2018 BDRip 1080p] MVO bober100 Скачать
1 | 0
Фильмы 2018 [DVDrip, WEB-DLRip, HDrip] (DUB, MVO) [ 742 MB ] Поезд смерти / D-Railed [2018 HDRip] MVO bober100 Скачать
1 | 0
Фильмы (WEB-DL 720p, 1080p) [ 3.99 GB ] Поезд смерти / D-Railed [2018 WEB-DL 1080p] MVO bober100 Скачать
1 | 0
Фильмы (WEB-DL 720p, 1080p) [ 2.08 GB ] Поезд смерти / D-Railed [2018 WEB-DL 720p] MVO bober100 Скачать
3 | 0
Фильмы 2018 [DVDrip, WEB-DLRip, HDrip] (DUB, MVO) [ 1.42 GB ] Поезд смерти / D-Railed [2018 BDRip] MVO bober100 Скачать
1 | 0

28-11-2019 20:33  

Отключить всю рекламу на сайте

    Дорогой пользователь! Огромная просьба, поблагодарите релизера, оцените раздачу и оставьте свои комментарий, если Вы скачали Поезд смерти через торрент бесплатно! Внесите свою лепту в развитие PiratBit!
    Комментировать посты могут только пользователи прошедшие не сложную регистрацию
    Показать сообщения:    

    Поезд смерти через торрент
    Скачать бесплатно Поезд смерти
    Поезд смерти скачать торрент
    Поезд смерти смотреть онлайн
    Cкачать фильм Поезд смерти бесплатно
    Поезд смерти скачать торрент в хорошем качестве
    Поезд смерти смотреть онлайн бесплатно в хорошем качестве


    Вы не можете начинать темы
    Вы не можете отвечать на сообщения
    Вы не можете редактировать свои сообщения
    Вы не можете удалять свои сообщения
    Вы не можете голосовать в опросах
    Вы не можете прикреплять файлы к сообщениям
    Вы можете скачивать файлы