Ссылка на приватное зеркало нашего сайта всего за 1$. Внимание количество ограничено!!!

2 сезон

iTunes

1 сезон

1

2 сезон

2 сезон

iTunes

1 сезон

RePack

30

Ultimate

ВАЖНО

ИГРА 18+

pack

RePack

MK11
pack

Забери бонус

RePack

jed

!!Акция!!

Alien_Rage

RePack

fifa19

RePack

Assassins Creed: Odyssey

RePack

NEED FOR SPEED™ PAYBACK

4 сезон

9 сезон

Бесстыжие 9 сезон

Все сериалы

все сериалы на PB.wtf

RePack

FAR CRY 5
  

Бекки / Becky (Джонатан Милотт, Кэри Мернион) [2020, Боевик, триллер, WEB-DL 1080p] DUB [iTunes] pb.wtf

Бекки через торрент pb.wtf

Раздают: 4 [ 0 KB/s ]
Размер: 4.12 GB | Добавлен: 4 мес. 19 д. назад | Торрент скачан:218 раз
Скачать  

10-07-2020 21:01 Бекки Скачать торрент  

Бекки | Becky
Год выпуска: 2020
Страна: США
Студия: Yale Productions, BondIt Media Capital, BoulderLight Pictures
Жанр: Боевик, триллер
Продолжительность: 01:33:08
Перевод: Дублированный | iTunes
Субтитры: Русские (полные (focs)), Английские (полные, SDH)

Режиссер: Джонатан Милотт, Кэри Мернион

rating

В ролях: Лулу Уилсон, Джоэл МакХэйл, Кевин Джеймс, Аманда Бругел, Роберт Мэйселт, Райан Макдональд, Гейдж Грэм-Арбутнот, Джон Д. Хикман, Майк Дара, Чандра Майклс

Описание: 13-летняя Бекки уже год не может смириться со смертью матери. Девушка обижена на весь мир, а особенно — на отца, который в её любимый лесной дом пригласил свою любовницу с сыном и объявил, что собирается жениться. Бекки убегает в лес, но не успевает толком поистерить, так как в дом проникает сбежавших из тюрьмы банда заключенных и берёт остальных в заложники. Им очень нужен некий ключ, который они когда-то спрятали в подвале, но Бекки не верит, что, заполучив желаемое, они уберутся восвояси, поэтому решает дать уголовникам отпор.

Качество: WEB-DL 1080p
Формат: MKV

Видео: MPEG-4 AVC, 1920x800, 5308 kbps, 23,976 fps
Аудио#1: русский, AC3, 5.1 ch, 48 kHz, 384 kbps | iTunes
Аудио#2: английский, E-AC3, 5.1 ch, 48 kHz, 640 kbps | Оригинал
скриншот  скриншот  скриншот  скриншот  

Общее
Уникальный идентификатор : 218464273075765448402347442963132046711 (0xA45AB04378D393308B3D7E6B8539DD77)
Полное имя : E:Torrent4BeckyWEBDL1080p.mkv
Формат : Matroska
Версия формата : Version 4 / Version 2
Размер файла : 4,12 Гбайт
Продолжительность : 1 ч. 33 м.
Общий поток : 6335 Кбит/сек
Дата кодирования : UTC 2020-07-10 16:29:23
Программа кодирования : mkvmerge v9.5.0 ('Quiet Fire') 64bit
Библиотека кодирования : libebml v1.3.4 + libmatroska v1.4.5

Видео
Идентификатор : 1
Формат : AVC
Формат/Информация : Advanced Video Codec
Профиль формата : High@L4
Настройки формата : CABAC / 4 Ref Frames
Параметр CABAC формата : Да
Параметр RefFrames формата : 4 кадра
Идентификатор кодека : V_MPEG4/ISO/AVC
Продолжительность : 1 ч. 33 м.
Вид битрейта : Постоянный
Битрейт : 5308 Кбит/сек
Номинальный битрейт : 10000 Кбит/сек
Ширина : 1920 пикселей
Высота : 800 пикселей
Соотношение сторон : 2,40:1
Режим частоты кадров : Постоянный
Частота кадров : 23,976 (24000/1001) кадра/сек
Цветовое пространство : YUV
Субдискретизация насыщенности : 4:2:0
Битовая глубина : 8 бит
Тип развёртки : Прогрессивная
Бит/(Пиксели*Кадры) : 0.144
Размер потока : 3,45 Гбайт (84%)
Язык : English
Default : Да
Forced : Нет
Цветовой диапазон : Limited
Основные цвета : BT.709
Характеристики трансфера : BT.709
Коэффициенты матрицы : BT.709

Аудио #1
Идентификатор : 2
Формат : AC-3
Формат/Информация : Audio Coding 3
Параметр Endianness формата : Big
Идентификатор кодека : A_AC3
Продолжительность : 1 ч. 33 м.
Вид битрейта : Постоянный
Битрейт : 384 Кбит/сек
Каналы : 6 каналов
Расположение каналов : Front: L C R, Side: L R, LFE
Частота : 48,0 КГц
Частота кадров : 31,250 кадров/сек (1536 SPF)
Битовая глубина : 16 бит
Метод сжатия : С потерями
Размер потока : 256 Мбайт (6%)
Заголовок : rus
Язык : Russian
Default : Да
Forced : Нет

Аудио #2
Идентификатор : 3
Формат : E-AC-3
Формат/Информация : Enhanced Audio Coding 3
Параметр Endianness формата : Big
Идентификатор кодека : A_EAC3
Продолжительность : 1 ч. 33 м.
Вид битрейта : Постоянный
Битрейт : 640 Кбит/сек
Каналы : 6 каналов
Расположение каналов : Front: L C R, Side: L R, LFE
Частота : 48,0 КГц
Частота кадров : 187,500 кадров/сек (256 SPF)
Метод сжатия : С потерями
Размер потока : 426 Мбайт (10%)
Заголовок : eng
Язык : English
Default : Нет
Forced : Нет

Текст #1
Идентификатор : 4
Формат : UTF-8
Идентификатор кодека : S_TEXT/UTF8
Идентификатор кодека/Информация : UTF-8 Plain Text
Продолжительность : 1 ч. 24 м.
Битрейт : 54 бит/сек
ElementCount : 884
Размер потока : 33,3 Кбайт (0%)
Заголовок : rusFull
Язык : Russian
Default : Нет
Forced : Нет

Текст #2
Идентификатор : 5
Формат : UTF-8
Идентификатор кодека : S_TEXT/UTF8
Идентификатор кодека/Информация : UTF-8 Plain Text
Продолжительность : 1 ч. 23 м.
Битрейт : 33 бит/сек
ElementCount : 951
Размер потока : 20,7 Кбайт (0%)
Заголовок : engFull
Язык : English
Default : Нет
Forced : Нет

Текст #3
Идентификатор : 6
Формат : UTF-8
Идентификатор кодека : S_TEXT/UTF8
Идентификатор кодека/Информация : UTF-8 Plain Text
Продолжительность : 1 ч. 32 м.
Битрейт : 38 бит/сек
ElementCount : 1224
Размер потока : 26,1 Кбайт (0%)
Заголовок : engSDH
Язык : English
Default : Нет
Forced : Нет

pb.wtf



Скачать Бекки через торрент https://img10.lostpic.net/2020/07/10/53b5d165e4eb129e9dcb7a3d08722842.png Скачать фильм Бекки через торрент бесплантно в хорошем качестве Описание: 13-летняя Бекки уже год не может смириться со смертью матери. Девушка обижена на весь мир, а особенно — на отца, который в её ... 8.9 10 8
Торрент: Зарегистрирован [2020-07-10 21:01] · скачан: 218 раз
Статус: √ проверено
Размер: 4.12 GB
Как cкачать? Как скачать Бекки через торрент | qTorrent

% Раздел Тема Автор DL S | L
# Фильмы [HD 720p, 1080p] (Хороший звук DUB, MVO) [ 10.57 GB ] Бекки / Becky [2020 BDRip 1080p] bober100 Скачать
6 | 0
Фильмы 2019-2020 [DVDrip, WEB-DLRip, HDrip] (DUB, MVO) [ 744 MB ] Бекки / Becky [2020 BDRip-AVC] [ ] от wolf1245 & MediaBit | Lithuania Скачать
2 | 0
Фильмы 2019-2020 [DVDrip, WEB-DLRip, HDrip] (DUB, MVO) [ 1.46 GB ] Бекки / Becky [2020 BDRip] bober100 Скачать
4 | 0
Фильмы без перевода [ 1.46 GB ] Бекки / Becky [2020 WEB-DLRip] 2x[Sub] killermax2013 Скачать
1 | 0
Зарубежные сериалы [ 2.93 GB ] Старость - не радость / Getting On / Сезон: 1 / Серии: 1-3 [ 2013 HDTVRip 720p ] MVO Amedia + Original + Rus sub Messa-fan Скачать
1 | 0
HD ролики [ 1.25 GB ] Бекки Холт: Очаровательная Красота / Becky Holt: Captivating Beauty. [1By-Day/DDFProd] [2014 Glamour Blondes Natural Tits Stockings Posing No Sex. SATRip 1080p] Pir@tya2010 Скачать
1 | 0


Последний раз редактировалось: bober100 (2020-07-12 08:11), всего редактировалось 2 раз(а)

28-11-2019 20:33  

Отключить всю рекламу на сайте

11-07-2020 18:08 Бекки Скачать торрент  

Раздающему спасибо, но говно редкое.
И еще, понимаю, что тут не форум кинокритиков, но я сажусь смотреть фильм и жду, если не отличного сценария, то хотя бы красивую картинку. Я понимаю, что сейчас команда тыкать везде разных "обиженных", но почему не поискать симпатичных хотя бы? По фильму "любовница", во-первых не играет от слова совсем, соседка за солью зашла и в кадр попала, во-вторых страшная "шо ". Вот реально, смотреть противно, даже не на любителя. имхоpb.wtf



    Дорогой пользователь! Огромная просьба, поблагодарите релизера, оцените раздачу и оставьте свои комментарий, если Вы скачали Бекки через торрент бесплатно! Внесите свою лепту в развитие PiratBit!
    Комментировать посты могут только пользователи прошедшие не сложную регистрацию
    Показать сообщения:    

    Бекки через торрент
    Скачать бесплатно Бекки
    Бекки скачать торрент
    Бекки смотреть онлайн
    Cкачать фильм Бекки бесплатно
    Бекки скачать торрент в хорошем качестве
    Бекки смотреть онлайн бесплатно в хорошем качестве


    Вы не можете начинать темы
    Вы не можете отвечать на сообщения
    Вы не можете редактировать свои сообщения
    Вы не можете удалять свои сообщения
    Вы не можете голосовать в опросах
    Вы не можете прикреплять файлы к сообщениям
    Вы можете скачивать файлы