Ссылка на приватное зеркало нашего сайта всего за 1$. Внимание количество ограничено!!!

2 сезон

iTunes

1 сезон

1

2 сезон

2 сезон

iTunes

1 сезон

RePack

30

Ultimate

ВАЖНО

ИГРА 18+

pack

RePack

MK11
pack

Забери бонус

RePack

jed

!!Акция!!

Alien_Rage

RePack

fifa19

RePack

Assassins Creed: Odyssey

RePack

NEED FOR SPEED™ PAYBACK

4 сезон

9 сезон

Бесстыжие 9 сезон

Все сериалы

все сериалы на PB.wtf

RePack

FAR CRY 5
  

Афера в Майами / Wasp Network (Оливье Ассайас) [2019, Триллер, BD Remux 1080p] DUB [iTunes] pb.wtf

Афера в Майами через торрент pb.wtf

Раздают: 1 [ 0 KB/s ]
Размер: 28.14 GB | Добавлен: 4 мес. 16 д. назад | Торрент скачан:38 раз
Скачать  

12-07-2020 06:08 Афера в Майами Скачать торрент  

Афера в Майами | Wasp Network
Год выпуска: 2019
Страна: Франция, Испания, Бельгия
Выпущено: Canary Island Film
Жанр: Триллер
Продолжительность: 02:07:27
Перевод: Дублированный | iTunes
Субтитры: Французские

Режиссер: Оливье Ассайас

rating

В ролях: Ана де Армас, Вагнер Моура, Пенелопа Крус, Эдгар Рамирес, Гаэль Гарсиа Берналь, Леонардо Сбаралья, Харлис Бесерра, Джулиан Флинн, Гизела Чипе, Майкл Витович

Описание: Кубинское правительство направляет в Майами своих шпионов для предотвращения терактов, организуемых враждебными группировками США. Но агенты под прикрытием не только успешно исполняют свою миссию, но и оказываются вовлечены в подпольную торговлю кокаином, что грозит мировым скандалом.

Качество: BD Remux 1080p
Формат: MKV

Видео: MPEG-4 AVC, 1920x1080, 27.6 Mbit/s, 24.000 fps
Аудио #01: 48 kHz, AC3, 5.1, 384 Kbps | iTunes | RUS |
Аудио #02: 48 kHz, DTS-HD MA, 5.1, 3625 Kbps | Оригинал | FRE |
скриншот  скриншот  скриншот  скриншот  скриншот  

General
Unique ID : 272899160330109563810854119988626503640 (0xCD4E776A6EDAF06AF1A8A7698EECB7D8)
Complete name : E:Video111Wasp.Network.2019.BDREMUX.1080p.seleZen.mkv
Format : Matroska
Format version : Version 4
File size : 28.1 GiB
Duration : 2 h 7 min
Overall bit rate mode : Variable
Overall bit rate : 31.6 Mb/s
Movie name : Wasp Network 2019 from селезень
Encoded date : UTC 2020-07-11 17:52:08
Writing application : mkvmerge v40.0.0 ('Old Town Road + Pony') 64-bit
Writing library : libebml v1.3.9 + libmatroska v1.5.2

Video
ID : 1
Format : AVC
Format/Info : Advanced Video Codec
Format profile : High@L4.1
Format settings : CABAC / 4 Ref Frames
Format settings, CABAC : Yes
Format settings, Reference frames : 4 frames
Codec ID : V_MPEG4/ISO/AVC
Duration : 2 h 7 min
Bit rate mode : Variable
Bit rate : 27.6 Mb/s
Maximum bit rate : 32.0 Mb/s
Width : 1 920 pixels
Height : 1 080 pixels
Display aspect ratio : 16:9
Frame rate mode : Constant
Frame rate : 24.000 FPS
Color space : YUV
Chroma subsampling : 4:2:0
Bit depth : 8 bits
Scan type : Progressive
Bits/(Pixel*Frame) : 0.555
Stream size : 24.6 GiB (87%)
Language : French
Default : Yes
Forced : No

Audio #1
ID : 2
Format : AC-3
Format/Info : Audio Coding 3
Commercial name : Dolby Digital
Codec ID : A_AC3
Duration : 2 h 7 min
Bit rate mode : Constant
Bit rate : 384 kb/s
Channel(s) : 6 channels
Channel layout : L R C LFE Ls Rs
Sampling rate : 48.0 kHz
Frame rate : 31.250 FPS (1536 SPF)
Compression mode : Lossy
Stream size : 350 MiB (1%)
Title : iTunes
Language : Russian
Service kind : Complete Main
Default : Yes
Forced : Yes

Audio #2
ID : 3
Format : DTS XLL
Format/Info : Digital Theater Systems
Commercial name : DTS-HD Master Audio
Codec ID : A_DTS
Duration : 2 h 7 min
Bit rate mode : Variable
Bit rate : 3 625 kb/s
Channel(s) : 6 channels
Channel layout : C L R Ls Rs LFE
Sampling rate : 48.0 kHz
Frame rate : 93.750 FPS (512 SPF)
Bit depth : 24 bits
Compression mode : Lossless
Stream size : 3.23 GiB (11%)
Title : Original
Language : French
Default : No
Forced : No

Text #1
ID : 4
Format : UTF-8
Codec ID : S_TEXT/UTF8
Codec ID/Info : UTF-8 Plain Text
Duration : 2 h 1 min
Bit rate : 4 b/s
Count of elements : 97
Stream size : 3.91 KiB (0%)
Title : French Forced
Language : French
Default : No
Forced : No

Text #2
ID : 5
Format : UTF-8
Codec ID : S_TEXT/UTF8
Codec ID/Info : UTF-8 Plain Text
Duration : 2 h 6 min
Bit rate : 54 b/s
Count of elements : 1590
Stream size : 50.4 KiB (0%)
Title : French Full
Language : French
Default : No
Forced : No

Menu
00:00:00.000 : fr:Глава 01
00:11:43.167 : fr:Глава 02
00:22:08.125 : fr:Глава 03
00:33:51.375 : fr:Глава 04
00:43:50.458 : fr:Глава 05
00:55:11.500 : fr:Глава 06
01:09:41.833 : fr:Глава 07
01:19:58.625 : fr:Глава 08
01:29:03.500 : fr:Глава 09
01:37:52.958 : fr:Глава 10
01:48:37.750 : fr:Глава 11
02:01:13.125 : fr:Глава 12

pb.wtf



Скачать Афера в Майами через торрент https://b.radikal.ru/b15/2007/d3/9db21104deed.jpg Скачать фильм Афера в Майами через торрент бесплантно в хорошем качестве Описание: Кубинское правительство направляет в Майами своих шпионов для предотвращения терактов, организуемых враждебными группировками ... 10 10 4
Торрент: Зарегистрирован [2020-07-12 06:08] · скачан: 38 раз
Статус: √ проверено
Размер: 28.14 GB
Как cкачать? Как скачать Афера в Майами через торрент | qTorrent

% Раздел Тема Автор DL S | L
Фильмы 2019-2020 [DVDrip, WEB-DLRip, HDrip] (DUB, MVO) [ 2.18 GB ] Афера в Майами / Wasp Network [2019 BDRip] bober100 Скачать
1 | 0
Фильмы 2019-2020 [DVDrip, WEB-DLRip, HDrip] (DUB, MVO) [ 751 MB ] Афера в Майами / Wasp Network [2019 BDRip-AVC] Lithuania Скачать
4 | 0
Фильмы 2019-2020 [DVDrip, WEB-DLRip, HDrip] (DUB, MVO) [ 748 MB ] Афера в Майами / Wasp Network [2019 HDRip] bober100 Скачать
1 | 0
Фильмы [HD 720p, 1080p] (Хороший звук DUB, MVO) [ 8.87 GB ] Афера в Майами / Wasp Network [2019 BDRip 1080p] bober100 Скачать
2 | 0
Фильмы [HD 720p, 1080p] (Хороший звук DUB, MVO) [ 7.33 GB ] Афера в Майами / Wasp Network [2019 BDRip 720p] bober100 Скачать
2 | 0
Фильмы (WEB-DL 720p, 1080p) [ 2.64 GB ] Афера в Майами / Wasp Network [2019 WEB-DL 720p] bober100 Скачать
3 | 0
Фильмы 2019-2020 [DVDrip, WEB-DLRip, HDrip] (DUB, MVO) [ 1.46 GB ] Афера в Майами / Wasp Network [2019 BDRip] bober100 Скачать
4 | 0

28-11-2019 20:33  

Отключить всю рекламу на сайте

    Дорогой пользователь! Огромная просьба, поблагодарите релизера, оцените раздачу и оставьте свои комментарий, если Вы скачали Афера в Майами через торрент бесплатно! Внесите свою лепту в развитие PiratBit!
    Комментировать посты могут только пользователи прошедшие не сложную регистрацию
    Показать сообщения:    

    Афера в Майами через торрент
    Скачать бесплатно Афера в Майами
    Афера в Майами скачать торрент
    Афера в Майами смотреть онлайн
    Cкачать фильм Афера в Майами бесплатно
    Афера в Майами скачать торрент в хорошем качестве
    Афера в Майами смотреть онлайн бесплатно в хорошем качестве


    Вы не можете начинать темы
    Вы не можете отвечать на сообщения
    Вы не можете редактировать свои сообщения
    Вы не можете удалять свои сообщения
    Вы не можете голосовать в опросах
    Вы не можете прикреплять файлы к сообщениям
    Вы можете скачивать файлы