2 сезон

iTunes

MVO

1

2 сезон

iTunes

iTunes

1 сезон

RePack

30

Новинка

ВАЖНО

ИГРА 18+

pack

RePack

MK11
pack

Легкие деньги

RePack

jed

RePack

fifa19

RePack

RDR2

RePack

NEED FOR SPEED™ PAYBACK

4 сезон

9 сезон

Бесстыжие 9 сезон

Все сериалы

все сериалы на PB.wtf

RePack

FAR CRY 5

Anonymous, добрый день, мы не успеваем собрать деньги на оплату серверов за декабрь и январь, помогите нам пожалуйста в это трудное время. В качестве благодарности мы отключим Вам всю рекламу на сайте (укажите свой ник в строку Ваше имя)!

×
  
Magnet ссылка

Бесстрашный / Huo Yuan Jia / Fearless (Ронни Ю) [2006 г., боевые искусства, биография, драма, BDRip 720p / 60 FPS, Авторский (одноголосый)] ( Режиссерская версия ) от R.G. HD-Films pb.wtf

Бесстрашный через торрент pb.wtf

Раздают: 1 [ 0 KB/s ]
Размер: 4.52 GB | Добавлен: 6 мес. назад | Торрент скачан:101 раз
Скачать  

13-07-2020 16:04 Бесстрашный Скачать торрент  

Бесстрашный / Huo Yuan Jia / Fearless
Год выпуска: 2006
Страна: Китай, Гонконг, США
Жанр: боевые искусства, биография, драма
Продолжительность: 02:20:46
Перевод: Авторский (одноголосый)(А. Дольский)
Субтитры: Russian, English

Режиссер: Ронни Ю

Премьера в мире: 26 января 2006

rating

В ролях: Джет Ли, Сидо Накамура, Бетти Сунь, Юн Дун, Хи Чинг Пав, Юн Ку, Нэйтан Джонс, Брэндон Ри, Энтони Де Лонгис, Жан Клод Лёйе, Майк Лидер, Джон Т. Бенн, Джон Пэйсли, Колин Чоу, Масато Харада, Чжиган Чжао, Саманта Бак, Джеки Хеунг, Чжи-Хуи Чен, Джейсон С. Лин, Дэйв Маллоу, Сомрак Камсинг, Йен Пауэрс

Описание: Начало 20 века. Хо Юаньцзя мечтает пойти по стопам своего отца, став бойцом мирового класса. Он просто ослеплен желанием стать величайшим и поднять престиж своего дома. Выиграв множество боев, он достигает цели, но это не приносит счастья, а, наоборот, происходит ужасная трагедия - погибают его близкие.
Переполненный горем, постигшим его, он идет куда глаза глядят. Хо получает приют в одной деревеньке, живет и работает вместе с крестьянами. И именно там к нему приходит понимание истинного назначения боевых искусств. Он возвращается домой и открывает собственную школу. У него все больше учеников, его учение приобретает все больше сторонников. И вот ему выпадает шанс отстоять честь своей школы и страны в целом, на арене крупного международного чемпионата…


Качество: BDRip 720p / 60 FPS
Формат: MKV
Видео кодек: H.264
Аудио кодек: AC3
Видео: x264, 1280 x 536 ( 2,40:1 ), 4212 kbps, 60,000 fps, ( 0.102 bpp)
Аудио#1: Русский, AC-3, 48.0 KHz, 6 ch, 384 Kbps AVO (Андрей Дольский)
Релиз от:

скриншот   скриншот   скриншот   скриншот   скриншот   скриншот  Автор рипа: slaventi-69
x264 [info]: frame I:2174 Avg QP:18.71 size: 69816
x264 [info]: frame P:122093 Avg QP:19.66 size: 18655
x264 [info]: frame B:382011 Avg QP:21.84 size: 5271
x264 [info]: consecutive B-frames: 2.2% 4.5% 9.1% 13.0% 59.2% 12.0%


Общее
Уникальный идентификатор : 202377790588785574244937420138521114495 (0x98408B7149B802B7B4ADDD5600E9377F)
Полное имя : F:\Huo.Yuan.Jia.(2006).BDRip.720p.(60 Fps).(Director's Cut).mkv
Формат : Matroska
Версия формата : Version 4
Размер файла : 4,52 Гбайт
Продолжительность : 2 ч. 20 м.
Общий поток : 4600 Кбит/сек
Название фильма : Бесстрашный / Huo Yuan Jia / Fearless (2006) BDRip 720p (60 Fps) Director's Cut
Дата кодирования : UTC 2020-07-13 15:21:23
Программа кодирования : mkvmerge v12.0.0 ('Trust / Lust') 64bit
Библиотека кодирования : libebml v1.3.4 + libmatroska v1.4.5

Видео
Идентификатор : 1
Формат : AVC
Формат/Информация : Advanced Video Codec
Профиль формата : High@L4.1
Настройки формата : CABAC / 9 Ref Frames
Параметр CABAC формата : Да
Параметр RefFrames формата : 9 кадров
Идентификатор кодека : V_MPEG4/ISO/AVC
Продолжительность : 2 ч. 20 м.
Битрейт : 4212 Кбит/сек
Ширина : 1280 пикселей
Высота : 536 пикселей
Соотношение сторон : 2,40:1
Режим частоты кадров : Постоянный
Частота кадров : 60,000 кадров/сек
Цветовое пространство : YUV
Субдискретизация насыщенности : 4:2:0
Битовая глубина : 8 бит
Тип развёртки : Прогрессивная
Бит/(Пиксели*Кадры) : 0.102
Размер потока : 4,14 Гбайт (92%)
Заголовок : slaventi-69 ( R.G. HD-Films | 60 fps )
Библиотека кодирования : x264 core 130 r2273 b3065e6
Настройки программы : cabac=1 / ref=9 / deblock=1:-1:-1 / analyse=0x3:0x133 / me=umh / subme=9 / psy=1 / psy_rd=1.00:0.00 / mixed_ref=1 / me_range=32 / chroma_me=1 / trellis=2 / 8x8dct=1 / cqm=0 / deadzone=21,11 / fast_pskip=0 / chroma_qp_offset=-2 / threads=10 / lookahead_threads=2 / sliced_threads=0 / nr=0 / decimate=1 / interlaced=0 / bluray_compat=0 / constrained_intra=0 / bframes=5 / b_pyramid=2 / b_adapt=2 / b_bias=0 / direct=1 / weightb=1 / open_gop=0 / weightp=2 / keyint=600 / keyint_min=23 / scenecut=40 / intra_refresh=0 / rc=crf / mbtree=0 / crf=17.7 / qcomp=0.60 / qpmin=0 / qpmax=69 / qpstep=4 / ip_ratio=1.40 / pb_ratio=1.30 / aq=1:1.00
Язык : Chinese
Default : Да
Forced : Нет

Аудио
Идентификатор : 2
Формат : AC-3
Формат/Информация : Audio Coding 3
Коммерческое название : Dolby Digital
Идентификатор кодека : A_AC3
Продолжительность : 2 ч. 20 м.
Вид битрейта : Постоянный
Битрейт : 384 Кбит/сек
Каналы : 6 каналов
Channel layout : L R C LFE Ls Rs
Частота : 48,0 КГц
Частота кадров : 31,250 кадров/сек (1536 SPF)
Битовая глубина : 16 бит
Метод сжатия : С потерями
Размер потока : 386 Мбайт (8%)
Заголовок : AVO (А. Дольский)
Язык : Russian
ServiceKind/String : Complete Main
Default : Да
Forced : Нет

Текст #1
Идентификатор : 3
Формат : UTF-8
Идентификатор кодека : S_TEXT/UTF8
Идентификатор кодека/Информация : UTF-8 Plain Text
Продолжительность : 2 ч. 17 м.
Битрейт : 53 бит/сек
ElementCount : 1219
Размер потока : 53,6 Кбайт (0%)
Язык : Russian
Default : Нет
Forced : Нет

Текст #2
Идентификатор : 4
Формат : UTF-8
Идентификатор кодека : S_TEXT/UTF8
Идентификатор кодека/Информация : UTF-8 Plain Text
Продолжительность : 2 ч. 17 м.
Битрейт : 30 бит/сек
ElementCount : 1204
Размер потока : 30,4 Кбайт (0%)
Язык : English
Default : Нет
Forced : Нет

Меню
00:00:00.000 : en:01. Sick Man of Asia (Main Titles)
00:07:21.315 : en:02. The Huo Wushu
00:15:23.047 : en:03. Trouble
00:19:54.276 : en:04. The Death Waiver
00:29:30.351 : en:05. No Competition
00:35:06.229 : en:06. Wounded Disciple
00:40:46.402 : en:07. A Declaration
00:48:06.842 : en:08. The Champion of Tianjin
00:55:45.342 : en:09. Vengeful Slaughter
01:04:20.022 : en:10. Cleansing
01:12:31.513 : en:11. Planting Rice
01:17:00.741 : en:12. Leaving
01:26:20.049 : en:13. Last Respects
01:32:10.483 : en:14. A New Challenge
01:38:38.120 : en:15. With Honor and Civility
01:45:00.919 : en:16. Jingwu Sports Federation
01:52:17.814 : en:17. Tea
01:57:51.397 : en:18. The Final Contest
02:06:40.509 : en:19. Stand Strong
02:16:35.187 : en:20. End Titles

Просьба к переливающим на другие сайты, в оформлении указывайте пожалуйста авторство группы R.G. HD-Films pb.wtf



Скачать Бесстрашный через торрент http://img.lostpic.net/orig_images/d/5/0/d50898598ae4723ec9bfc8fafe864431.jpg Скачать фильм Бесстрашный через торрент бесплантно в хорошем качестве Описание: Начало 20 века. Хо Юаньцзя мечтает пойти по стопам своего отца, став бойцом мирового класса. Он просто ослеплен желанием стать ... 10 10 11
Торрент: Зарегистрирован [2020-07-13 16:04] · скачан: 101 раз
Статус: √ проверено
Размер: 4.52 GB
Как cкачать? Как скачать Бесстрашный через торрент | UTorrent

28-11-2019 20:33  

Отключить всю рекламу на сайте

13-07-2020 18:26 Бесстрашный Скачать торрент  

Большое спасибо за любимые фильмы с Джет Ли. Как раз хотел пересмотреть "Бесстрашный" в 60fpspb.wtf





Последний раз редактировалось: Ares_1 (2020-07-13 19:18), всего редактировалось 1 раз

13-07-2020 18:42 Бесстрашный Скачать торрент  

Смотрите в удовольствие.pb.wtf



13-07-2020 18:51 Бесстрашный Скачать торрент  

Благодарствуем!pb.wtf



    Дорогой пользователь! Огромная просьба, поблагодарите релизера, оцените раздачу и оставьте свои комментарий, если Вы скачали Бесстрашный через торрент бесплатно! Внесите свою лепту в развитие PiratBit!
    Комментировать посты могут только пользователи прошедшие не сложную регистрацию
    Показать сообщения:    

    Бесстрашный через торрент
    Скачать бесплатно Бесстрашный
    Бесстрашный скачать торрент
    Бесстрашный смотреть онлайн
    Cкачать фильм Бесстрашный бесплатно
    Бесстрашный скачать торрент в хорошем качестве
    Бесстрашный смотреть онлайн бесплатно в хорошем качестве


    Вы не можете начинать темы
    Вы не можете отвечать на сообщения
    Вы не можете редактировать свои сообщения
    Вы не можете удалять свои сообщения
    Вы не можете голосовать в опросах
    Вы не можете прикреплять файлы к сообщениям
    Вы можете скачивать файлы