Ссылка на приватное зеркало нашего сайта всего за 1$. Внимание количество ограничено!!!

2 сезон

iTunes

1 сезон

1

iTunes

iTunes

iTunes

1 сезон

RePack

30

ИГРА 18+

pack

ВАЖНО

!!Акция!!

Alien_RageХит недели

RePack

MK11
pack

Забери бонус

RePack

jed

!!Акция!!

Alien_Rage

RePack

fifa19

RePack

Assassins Creed: Odyssey

RePack

NEED FOR SPEED™ PAYBACK

4 сезон

9 сезон

Бесстыжие 9 сезон

Все сериалы

все сериалы на PB.wtf

RePack

FAR CRY 5
  

Люди Икс: Тёмный Феникс / Dark Phoenix (Саймон Кинберг) [2019 г., Фантастика, боевик, приключения, BDRip 720p / 60 FPS, Дубляж BD CEE] от R.G. HD-Films pb.wtf

Люди Икс: Тёмный Феникс через торрент pb.wtf

Раздают: 3 [ 0 KB/s ]
Размер: 3.61 GB | Добавлен: 3 мес. 10 д. назад | Торрент скачан:182 раза
Скачать  

13-07-2020 16:46 Люди Икс: Тёмный Феникс Скачать торрент  

Люди Икс: Тёмный Феникс / Dark Phoenix
Год выпуска: 2019
Страна: США
Жанр: Фантастика, боевик, приключения
Продолжительность: 01:53:56
Перевод: Дубляж BD CEE
Субтитры: Russian, English

Режиссер: Саймон Кинберг

Бюджет: $200 000 000
Премьера в мире: 5 июня 2019

rating

В ролях: Джеймс МакЭвой, Майкл Фассбендер, Дженнифер Лоуренс, Николас Холт, Софи Тёрнер, Тай Шеридан, Александра Шипп, Эван Питерс, Коди Смит-МакФи, Джессика Честейн

Описание: История Джин Грей, которая разворачивается в тот момент, когда героиня превращается в культового Тёмного Феникса. Во время опасной для жизни спасательной миссии в космосе девушка оказывается поражена таинственной космической силой, которая превращает её в одного из самых могущественных мутантов. В борьбе с этой всё более изменчивой мощью и со своими собственными демонами Джин выходит из-под контроля: раскалывает семью Людей Икс и угрожает уничтожить всю нашу планету.

Качество: BDRip 720p / 60 FPS
Формат: MKV
Видео кодек: H.264
Аудио кодек: AC3
Видео: x264, 1280 x 536 ( 2,40:1 ), 4147 kbps, 60,000 fps, ( 0.101 bpp)
Аудио#1: Русский, AC-3, 48.0 KHz, 6 ch, 384 Kbps Dub [Blu-Ray EUR]
Релиз от:

скриншот   скриншот   скриншот   скриншот   скриншот   скриншот  Автор рипа: slaventi-69
x264 [info]: frame I:1727 Avg QP:15.05 size: 71441
x264 [info]: frame P:92015 Avg QP:16.08 size: 18383
x264 [info]: frame B:316031 Avg QP:18.70 size: 5460
x264 [info]: consecutive B-frames: 1.7% 1.8% 5.8% 10.6% 70.1% 9.9%


Общее
Уникальный идентификатор : 197339550067678611372038224243598643065 (0x94763701A30144888523712D70B14F79)
Полное имя : F:\Dark.Phoenix.(2019).BDRip.720p.(60 Fps).mkv
Формат : Matroska
Версия формата : Version 4
Размер файла : 3,61 Гбайт
Продолжительность : 1 ч. 53 м.
Общий поток : 4536 Кбит/сек
Название фильма : Люди Икс: Тёмный Феникс / Dark Phoenix (2019) BDRip 720p (60 Fps)
Дата кодирования : UTC 2020-07-13 16:13:10
Программа кодирования : mkvmerge v12.0.0 ('Trust / Lust') 64bit
Библиотека кодирования : libebml v1.3.4 + libmatroska v1.4.5

Видео
Идентификатор : 1
Формат : AVC
Формат/Информация : Advanced Video Codec
Профиль формата : High@L4.1
Настройки формата : CABAC / 8 Ref Frames
Параметр CABAC формата : Да
Параметр RefFrames формата : 8 кадров
Идентификатор кодека : V_MPEG4/ISO/AVC
Продолжительность : 1 ч. 53 м.
Битрейт : 4147 Кбит/сек
Ширина : 1280 пикселей
Высота : 536 пикселей
Соотношение сторон : 2,40:1
Режим частоты кадров : Постоянный
Частота кадров : 60,000 кадров/сек
Цветовое пространство : YUV
Субдискретизация насыщенности : 4:2:0
Битовая глубина : 8 бит
Тип развёртки : Прогрессивная
Бит/(Пиксели*Кадры) : 0.101
Размер потока : 3,30 Гбайт (91%)
Заголовок : slaventi-69 ( R.G. HD-Films | 60 fps )
Библиотека кодирования : x264 core 130 r2273 b3065e6
Настройки программы : cabac=1 / ref=8 / deblock=1:-1:-1 / analyse=0x3:0x113 / me=umh / subme=9 / psy=1 / psy_rd=1.00:0.00 / mixed_ref=1 / me_range=28 / chroma_me=1 / trellis=2 / 8x8dct=1 / cqm=0 / deadzone=21,11 / fast_pskip=0 / chroma_qp_offset=-2 / threads=4 / lookahead_threads=2 / sliced_threads=0 / nr=0 / decimate=1 / interlaced=0 / bluray_compat=0 / constrained_intra=0 / bframes=5 / b_pyramid=2 / b_adapt=2 / b_bias=0 / direct=3 / weightb=1 / open_gop=0 / weightp=2 / keyint=600 / keyint_min=23 / scenecut=40 / intra_refresh=0 / rc=crf / mbtree=0 / crf=16.5 / qcomp=0.60 / qpmin=0 / qpmax=69 / qpstep=4 / ip_ratio=1.40 / pb_ratio=1.30 / aq=1:1.00
Язык : English
Default : Да
Forced : Нет

Аудио
Идентификатор : 2
Формат : AC-3
Формат/Информация : Audio Coding 3
Коммерческое название : Dolby Digital
Идентификатор кодека : A_AC3
Продолжительность : 1 ч. 53 м.
Вид битрейта : Постоянный
Битрейт : 384 Кбит/сек
Каналы : 6 каналов
Channel layout : L R C LFE Ls Rs
Частота : 48,0 КГц
Частота кадров : 31,250 кадров/сек (1536 SPF)
Битовая глубина : 16 бит
Метод сжатия : С потерями
Размер потока : 313 Мбайт (8%)
Заголовок : Dub [Blu-ray EUR]
Язык : Russian
ServiceKind/String : Complete Main
Default : Да
Forced : Нет

Текст #1
Идентификатор : 3
Формат : UTF-8
Идентификатор кодека : S_TEXT/UTF8
Идентификатор кодека/Информация : UTF-8 Plain Text
Продолжительность : 1 ч. 52 м.
Битрейт : 1 бит/сек
ElementCount : 18
Размер потока : 1,03 Кбайт (0%)
Заголовок : Forced [Enigma]
Язык : Russian
Default : Да
Forced : Нет

Текст #2
Идентификатор : 4
Формат : UTF-8
Идентификатор кодека : S_TEXT/UTF8
Идентификатор кодека/Информация : UTF-8 Plain Text
Продолжительность : 1 ч. 46 м.
Битрейт : 0 бит/сек
ElementCount : 10
Размер потока : 449 байт (0%)
Заголовок : Forced [Blu-ray EUR]
Язык : Russian
Default : Нет
Forced : Нет

Текст #3
Идентификатор : 5
Формат : UTF-8
Идентификатор кодека : S_TEXT/UTF8
Идентификатор кодека/Информация : UTF-8 Plain Text
Продолжительность : 1 ч. 52 м.
Битрейт : 55 бит/сек
ElementCount : 1094
Размер потока : 46,1 Кбайт (0%)
Заголовок : Blu-ray EUR
Язык : Russian
Default : Нет
Forced : Нет

Текст #4
Идентификатор : 6
Формат : UTF-8
Идентификатор кодека : S_TEXT/UTF8
Идентификатор кодека/Информация : UTF-8 Plain Text
Продолжительность : 1 ч. 52 м.
Битрейт : 63 бит/сек
ElementCount : 1137
Размер потока : 52,9 Кбайт (0%)
Заголовок : Enigma
Язык : Russian
Default : Нет
Forced : Нет

Текст #5
Идентификатор : 7
Формат : UTF-8
Идентификатор кодека : S_TEXT/UTF8
Идентификатор кодека/Информация : UTF-8 Plain Text
Продолжительность : 31 м. 20 с.
Битрейт : 0 бит/сек
ElementCount : 4
Размер потока : 169 байт (0%)
Заголовок : Forced
Язык : English
Default : Нет
Forced : Нет

Текст #6
Идентификатор : 8
Формат : UTF-8
Идентификатор кодека : S_TEXT/UTF8
Идентификатор кодека/Информация : UTF-8 Plain Text
Продолжительность : 1 ч. 43 м.
Битрейт : 40 бит/сек
ElementCount : 1103
Размер потока : 30,9 Кбайт (0%)
Заголовок : Full
Язык : English
Default : Нет
Forced : Нет

Текст #7
Идентификатор : 9
Формат : UTF-8
Идентификатор кодека : S_TEXT/UTF8
Идентификатор кодека/Информация : UTF-8 Plain Text
Продолжительность : 1 ч. 53 м.
Битрейт : 44 бит/сек
ElementCount : 1397
Размер потока : 36,8 Кбайт (0%)
Заголовок : SDH
Язык : English
Default : Нет
Forced : Нет

Текст #8
Идентификатор : 10
Формат : UTF-8
Идентификатор кодека : S_TEXT/UTF8
Идентификатор кодека/Информация : UTF-8 Plain Text
Продолжительность : 1 ч. 53 м.
Битрейт : 61 бит/сек
ElementCount : 1397
Размер потока : 50,8 Кбайт (0%)
Заголовок : SDH-Colored
Язык : English
Default : Нет
Forced : Нет

Меню
00:00:00.000 : en:Chapter 01
00:03:28.875 : en:Chapter 02
00:07:34.619 : en:Chapter 03
00:11:42.201 : en:Chapter 04
00:15:44.109 : en:Chapter 05
00:18:37.405 : en:Chapter 06
00:25:24.480 : en:Chapter 07
00:31:40.355 : en:Chapter 08
00:34:19.306 : en:Chapter 09
00:40:07.445 : en:Chapter 10
00:44:36.090 : en:Chapter 11
00:49:07.777 : en:Chapter 12
00:55:38.168 : en:Chapter 13
00:58:57.407 : en:Chapter 14
01:02:57.189 : en:Chapter 15
01:10:40.109 : en:Chapter 16
01:13:42.417 : en:Chapter 17
01:19:33.475 : en:Chapter 18
01:22:35.698 : en:Chapter 19
01:25:49.060 : en:Chapter 20
01:30:38.349 : en:Chapter 21
01:32:48.185 : en:Chapter 22
01:37:59.622 : en:Chapter 23
01:45:01.042 : en:Chapter 24

Просьба к переливающим на другие сайты, в оформлении указывайте пожалуйста авторство группы R.G. HD-Films pb.wtf



Скачать Люди Икс: Тёмный Феникс через торрент https://img16.lostpic.net/2019/09/03/2c444980458396451813110e5cbb201a.png Скачать фильм Люди Икс: Тёмный Феникс через торрент бесплантно в хорошем качестве Описание: История Джин Грей, которая разворачивается в тот момент, когда героиня превращается в культового Тёмного Феникса. Во время ... 10 10 10
Info! Золотая раздача, скачанное не засчитывается.
Торрент: Зарегистрирован [2020-07-13 16:46] · скачан: 182 раз
Статус: √ проверено
Размер: 3.61 GB
Как cкачать? Как скачать Люди Икс: Тёмный Феникс через торрент | qTorrent

28-11-2019 20:33  

Отключить всю рекламу на сайте

    Дорогой пользователь! Огромная просьба, поблагодарите релизера, оцените раздачу и оставьте свои комментарий, если Вы скачали Люди Икс: Тёмный Феникс через торрент бесплатно! Внесите свою лепту в развитие PiratBit!
    Комментировать посты могут только пользователи прошедшие не сложную регистрацию
    Показать сообщения:    

    Люди Икс: Тёмный Феникс через торрент
    Скачать бесплатно Люди Икс: Тёмный Феникс
    Люди Икс: Тёмный Феникс скачать торрент
    Люди Икс: Тёмный Феникс смотреть онлайн
    Cкачать фильм Люди Икс: Тёмный Феникс бесплатно
    Люди Икс: Тёмный Феникс скачать торрент в хорошем качестве
    Люди Икс: Тёмный Феникс смотреть онлайн бесплатно в хорошем качестве


    Вы не можете начинать темы
    Вы не можете отвечать на сообщения
    Вы не можете редактировать свои сообщения
    Вы не можете удалять свои сообщения
    Вы не можете голосовать в опросах
    Вы не можете прикреплять файлы к сообщениям
    Вы можете скачивать файлы