Ссылка на приватное зеркало нашего сайта всего за 1$. Внимание количество ограничено!!!

2 сезон

iTunes

1 сезон

1

iTunes

iTunes

iTunes

1 сезон

RePack

30

ИГРА 18+

pack

ВАЖНО

!!Акция!!

Alien_RageХит недели

RePack

MK11
pack

Забери бонус

RePack

jed

!!Акция!!

Alien_Rage

RePack

fifa19

RePack

Assassins Creed: Odyssey

RePack

NEED FOR SPEED™ PAYBACK

4 сезон

9 сезон

Бесстыжие 9 сезон

Все сериалы

все сериалы на PB.wtf

RePack

FAR CRY 5
  

Андреевский флаг / Сезон: 1 / Серии: 1-16 из 16 (Виталий Воробьев) [2020, Драма, приключения, военный, HDTVRip] pb.wtf

Андреевский флаг через торрент pb.wtf

Размер: 9.9 GB | Добавлен: 3 мес. 1 д. назад | Торрент скачан:55 раз
Скачать  

14-07-2020 00:46 Андреевский флаг Скачать торрент  

Андреевский флаг
Год выпуска: 2020
Страна: Россия
Выпущено: ООО "Киностудия Крылья"
Жанр: Драма, приключения, военный
Продолжительность: ~ 00:50:00
Перевод: Не требуется
Субтитры: отсутствуют

Режиссер: Виталий Воробьев



В ролях: Анатолий Васильев (II), Елена Проклова, Дмитрий Миллер, Семён Шемес, Ирина Темичева, Ольга Балашова, Андрей Фролов (II), Борис Щербаков, Анатолий Котенёв, Дмитрий Фрид, Сергей Апрельский, Анна Неверова, Анастасия Федоркова, Дмитрий Астрахан, Анна Шерлинг, Эра Зиганшина, Александр Макогон, Алексей Овсянников

Описание: Вице-адмирал Григорий Сергеевич Чернобаевский после долгих лет верной службы отечеству на Балтийском Флоте уходит в отставку. Из любимого моря он выходит в океан жизни, где, как выясняется, тут и там назревают грозовые тучи. Григория Сергеевича заботит карьера сына Сергея, личная жизнь дочери Кати, выбор пути внука Валеры… Однако, все эти жизненные треволнения оказываются ничем, по сравнению с грозными неприятностями, подстерегающими Адмирала и его родных впереди…

Качество: HDTVRip
Формат: AVI

Видео: XviD, ~ 1600 Кбит/с, 720x400, 25 кадр/с
Аудио: 48.0 kHz, AC3 Dolby Digital, 2/0 (L,R) ch, ~ 192 kbps
скриншот  скриншот  скриншот  скриншот  

Общее
Полное имя : D:Andreevskij flag.HDTVRip.GeneralFilm1.Andreevskij flag.HDTVRip.GeneralFilm.avi
Формат : AVI
Формат/Информация : Audio Video Interleave
Размер файла : 611 Мбайт
Продолжительность : 47 м.
Общий поток : 1802 Кбит/сек

Видео
Идентификатор : 0
Формат : MPEG-4 Visual
Профиль формата : Advanced Simple@L5
Параметр BVOP формата : 1
Параметр QPel формата : Нет
Параметр GMC формата : Без точки перехода
Параметр матрицы формата : Выборочная
Идентификатор кодека : XVID
Идентификатор кодека/Подсказка : XviD
Продолжительность : 47 м.
Битрейт : 1598 Кбит/сек
Ширина : 720 пикселей
Высота : 400 пикселей
Соотношение сторон : 16:9
Частота кадров : 25,000 кадров/сек
Цветовое пространство : YUV
Субдискретизация насыщенности : 4:2:0
Битовая глубина : 8 бит
Тип развёртки : Прогрессивная
Метод сжатия : С потерями
Бит/(Пиксели*Кадры) : 0.222
Размер потока : 542 Мбайт (89%)
Библиотека кодирования : XviD 1.2.1 (UTC 2008-12-04)

Аудио
Идентификатор : 1
Формат : AC-3
Формат/Информация : Audio Coding 3
Расширение режима : CM (complete main)
Параметр Endianness формата : Big
Идентификатор кодека : 2000
Продолжительность : 47 м.
Вид битрейта : Постоянный
Битрейт : 192 Кбит/сек
Каналы : 2 канала
Расположение каналов : Front: L R
Частота : 48,0 КГц
Битовая глубина : 16 бит
Метод сжатия : С потерями
Размер потока : 65,2 Мбайт (11%)
Выравнивание : Соединение по промежуткам
Продолжительность промежутка : 32 мс. (0,80 видеокадр)

Внимание! Раздача ведётся путём добавления новых серий; при каждом добавлении создаётся новый торрент.
Чтобы начать докачку новой серии, пользователям необходимо сделать следующее:
1. Остановить скачивание;
2. Удалить старый торрент у себя из клиента (старые серии удалять не надо);
3. Скачать новый торрент и запустить его у себя в клиенте вместо старого, при этом указать клиенту путь в старую папку куда и должно происходить скачивание новых серий. Ваш клиент при этом должен произвести хеширование (проверку) старой папки и будет докачивать только те серии, которых у вас ещё нет. Старые серии при этом не удаляются, а продолжают раздаваться! Eсли вы уже удалили старые серии, то предотвратить повторную закачку старых серий можно, отжав галочку в соответствующих местах при запуске нового торрента.

pb.wtf



Скачать Андреевский флаг через торрент http://a.radikal.ru/a29/2007/34/115497fff145.jpg Скачать фильм Андреевский флаг через торрент бесплантно в хорошем качестве Описание: Вице-адмирал Григорий Сергеевич Чернобаевский после долгих лет верной службы отечеству на Балтийском Флоте уходит в отставку. Из ... 7.7 10 9
Торрент: Зарегистрирован [2020-07-23 22:40] · скачан: 55 раз
Статус: √ проверено
Размер: 9.9 GB
Как cкачать? Как скачать Андреевский флаг через торрент | qTorrent

% Раздел Тема Автор DL S | L
Наши сериалы [ 9.38 GB ] Андреевский флаг / Сезон: 1 / Серии: 1-16 из 16 [2020 военный SATRip] bober100 Скачать
2 | 0
Наши сериалы [ 37.52 GB ] Андреевский флаг / Сезон: 1 / Серии: 1-16 из 16 [2020 военный HDTV 1080i] bober100 Скачать
3 | 0
Наши сериалы [ 20.29 GB ] Андреевский флаг / Сезон: 1 / Серии: 1-16 из 16 [2020 военный HDTVRip 720p] bober100 Скачать
1 | 0
Наши сериалы [ 12.05 GB ] Андреевский флаг / Сезон: 1 / Серии: 1-16 из 16 [2020 военный HDTVRip-AVC] bober100 Скачать
1 | 0

28-11-2019 20:33  

Отключить всю рекламу на сайте

    Дорогой пользователь! Огромная просьба, поблагодарите релизера, оцените раздачу и оставьте свои комментарий, если Вы скачали Андреевский флаг через торрент бесплатно! Внесите свою лепту в развитие PiratBit!
    Комментировать посты могут только пользователи прошедшие не сложную регистрацию
    Показать сообщения:    

    Андреевский флаг через торрент
    Скачать бесплатно Андреевский флаг
    Андреевский флаг скачать торрент
    Андреевский флаг смотреть онлайн
    Cкачать фильм Андреевский флаг бесплатно
    Андреевский флаг скачать торрент в хорошем качестве
    Андреевский флаг смотреть онлайн бесплатно в хорошем качестве


    Вы не можете начинать темы
    Вы не можете отвечать на сообщения
    Вы не можете редактировать свои сообщения
    Вы не можете удалять свои сообщения
    Вы не можете голосовать в опросах
    Вы не можете прикреплять файлы к сообщениям
    Вы можете скачивать файлы