Ссылка на приватное зеркало нашего сайта всего за 1$. Внимание количество ограничено!!!

2 сезон

iTunes

1 сезон

1

iTunes

iTunes

iTunes

1 сезон

RePack

30

ИГРА 18+

pack

ВАЖНО

!!Акция!!

Alien_RageХит недели

RePack

MK11
pack

Забери бонус

RePack

jed

!!Акция!!

Alien_Rage

RePack

fifa19

RePack

Assassins Creed: Odyssey

RePack

NEED FOR SPEED™ PAYBACK

4 сезон

9 сезон

Бесстыжие 9 сезон

Все сериалы

все сериалы на PB.wtf

RePack

FAR CRY 5
  

Андреевский флаг / Сезон: 1 / Серии: 1-16 из 16 (Виталий Воробьев) [2020, Драма, приключения, военный, HDTVRip-AVC] pb.wtf

Андреевский флаг через торрент pb.wtf

Размер: 12.05 GB | Добавлен: 3 мес. 1 д. назад | Торрент скачан:21 раз
Скачать  

14-07-2020 00:46 Андреевский флаг Скачать торрент  

Андреевский флаг
Год выпуска: 2020
Страна: Россия
Выпущено: ООО "Киностудия Крылья"
Жанр: Драма, приключения, военный
Продолжительность: ~ 00:50:00
Перевод: Не требуется
Субтитры: отсутствуют

Режиссер: Виталий Воробьев



В ролях: Анатолий Васильев (II), Елена Проклова, Дмитрий Миллер, Семён Шемес, Ирина Темичева, Ольга Балашова, Андрей Фролов (II), Борис Щербаков, Анатолий Котенёв, Дмитрий Фрид, Сергей Апрельский, Анна Неверова, Анастасия Федоркова, Дмитрий Астрахан, Анна Шерлинг, Эра Зиганшина, Александр Макогон, Алексей Овсянников

Описание: Вице-адмирал Григорий Сергеевич Чернобаевский после долгих лет верной службы отечеству на Балтийском Флоте уходит в отставку. Из любимого моря он выходит в океан жизни, где, как выясняется, тут и там назревают грозовые тучи. Григория Сергеевича заботит карьера сына Сергея, личная жизнь дочери Кати, выбор пути внука Валеры… Однако, все эти жизненные треволнения оказываются ничем, по сравнению с грозными неприятностями, подстерегающими Адмирала и его родных впереди…

Качество: HDTVRip-AVC
Формат: MKV

Видео: 1024x576 (16:9), 25 fps, MPEG-4 AVC ~2000 kbps avg, 0.136 bit/pixel
Аудио: 48.0 kHz, AC3 Dolby Digital, 2/0 (L,R) ch, ~ 192 kbps
скриншот  скриншот  скриншот  скриншот  скриншот  

Общее
Уникальный идентификатор : 323589568374928149413296435984593333598 (0xF371157D40CEE6111F00484747C82D5E)
Полное имя : Andreevskij flag.HDTVRip.(AVC)1.Andreevskij flag.HDTVRip.(AVC).mkv
Формат : Matroska
Версия формата : Version 4
Размер файла : 744 Мбайт
Продолжительность : 47 м. 26 с.
Общий поток : 2 194 Кбит/сек
Дата кодирования : UTC 2020-07-13 18:08:49
Программа кодирования : mkvmerge v47.0.0 ('Black Flag') 64-bit
Библиотека кодирования : libebml v1.3.10 + libmatroska v1.5.2

Видео
Идентификатор : 1
Формат : AVC
Формат/Информация : Advanced Video Codec
Профиль формата : High@L4.1
Настройки формата : CABAC / 9 Ref Frames
Параметр CABAC формата : Да
Параметр RefFrames формата : 9 кадров
Идентификатор кодека : V_MPEG4/ISO/AVC
Продолжительность : 47 м. 26 с.
Битрейт : 2 000 Кбит/сек
Ширина : 1 024 пикселя
Высота : 576 пикселей
Соотношение сторон : 16:9
Режим частоты кадров : Постоянный
Частота кадров : 25,000 кадров/сек
Цветовое пространство : YUV
Субдискретизация насыщенности : 4:2:0
Битовая глубина : 8 бит
Тип развёртки : Прогрессивная
Бит/(Пиксели*Кадры) : 0.136
Размер потока : 679 Мбайт (91%)
Библиотека кодирования : x264 core 152 r2851bm ba24899
Настройки программы : cabac=1 / ref=9 / deblock=1:-2:-2 / analyse=0x3:0x113 / me=umh / subme=10 / psy=1 / psy_rd=1.00:0.15 / mixed_ref=1 / me_range=32 / chroma_me=1 / trellis=2 / 8x8dct=1 / cqm=0 / deadzone=21,11 / fast_pskip=0 / chroma_qp_offset=-3 / threads=12 / lookahead_threads=3 / sliced_threads=0 / nr=0 / decimate=0 / interlaced=0 / bluray_compat=0 / constrained_intra=0 / bframes=9 / b_pyramid=2 / b_adapt=2 / b_bias=0 / direct=3 / weightb=1 / open_gop=0 / weightp=2 / keyint=250 / keyint_min=25 / scenecut=40 / intra_refresh=0 / rc=2pass / mbtree=0 / bitrate=2000 / ratetol=1.0 / qcomp=0.60 / qpmin=0 / qpmax=69 / qpstep=4 / cplxblur=20.0 / qblur=0.5 / ip_ratio=1.40 / pb_ratio=1.30 / aq=1:1.00
Язык : English
Default : Да
Forced : Нет

Аудио
Идентификатор : 2
Формат : AC-3
Формат/Информация : Audio Coding 3
Коммерческое название : Dolby Digital
Идентификатор кодека : A_AC3
Продолжительность : 47 м. 26 с.
Вид битрейта : Постоянный
Битрейт : 192 Кбит/сек
Каналы : 2 канала
Channel layout : L R
Частота : 48,0 КГц
Частота кадров : 31,250 кадров/сек (1536 SPF)
Метод сжатия : С потерями
Размер потока : 65,2 Мбайт (9%)
Default : Да
Forced : Нет

Внимание! Раздача ведётся путём добавления новых серий; при каждом добавлении создаётся новый торрент.
Чтобы начать докачку новой серии, пользователям необходимо сделать следующее:
1. Остановить скачивание;
2. Удалить старый торрент у себя из клиента (старые серии удалять не надо);
3. Скачать новый торрент и запустить его у себя в клиенте вместо старого, при этом указать клиенту путь в старую папку куда и должно происходить скачивание новых серий. Ваш клиент при этом должен произвести хеширование (проверку) старой папки и будет докачивать только те серии, которых у вас ещё нет. Старые серии при этом не удаляются, а продолжают раздаваться! Eсли вы уже удалили старые серии, то предотвратить повторную закачку старых серий можно, отжав галочку в соответствующих местах при запуске нового торрента.

pb.wtf



Скачать Андреевский флаг через торрент http://a.radikal.ru/a29/2007/34/115497fff145.jpg Скачать фильм Андреевский флаг через торрент бесплантно в хорошем качестве Описание: Вице-адмирал Григорий Сергеевич Чернобаевский после долгих лет верной службы отечеству на Балтийском Флоте уходит в отставку. Из ... 6.4 10 5
Торрент: Зарегистрирован [2020-07-23 19:14] · скачан: 21 раз
Статус: √ проверено
Размер: 12.05 GB
Как cкачать? Как скачать Андреевский флаг через торрент | qTorrent

% Раздел Тема Автор DL S | L
Наши сериалы [ 9.38 GB ] Андреевский флаг / Сезон: 1 / Серии: 1-16 из 16 [2020 военный SATRip] bober100 Скачать
2 | 0
Наши сериалы [ 37.52 GB ] Андреевский флаг / Сезон: 1 / Серии: 1-16 из 16 [2020 военный HDTV 1080i] bober100 Скачать
2 | 0
Наши сериалы [ 20.29 GB ] Андреевский флаг / Сезон: 1 / Серии: 1-16 из 16 [2020 военный HDTVRip 720p] bober100 Скачать
1 | 0
Наши сериалы [ 9.9 GB ] Андреевский флаг / Сезон: 1 / Серии: 1-16 из 16 [2020 военный HDTVRip] bober100 Скачать
1 | 0

28-11-2019 20:33  

Отключить всю рекламу на сайте

    Дорогой пользователь! Огромная просьба, поблагодарите релизера, оцените раздачу и оставьте свои комментарий, если Вы скачали Андреевский флаг через торрент бесплатно! Внесите свою лепту в развитие PiratBit!
    Комментировать посты могут только пользователи прошедшие не сложную регистрацию
    Показать сообщения:    

    Андреевский флаг через торрент
    Скачать бесплатно Андреевский флаг
    Андреевский флаг скачать торрент
    Андреевский флаг смотреть онлайн
    Cкачать фильм Андреевский флаг бесплатно
    Андреевский флаг скачать торрент в хорошем качестве
    Андреевский флаг смотреть онлайн бесплатно в хорошем качестве


    Вы не можете начинать темы
    Вы не можете отвечать на сообщения
    Вы не можете редактировать свои сообщения
    Вы не можете удалять свои сообщения
    Вы не можете голосовать в опросах
    Вы не можете прикреплять файлы к сообщениям
    Вы можете скачивать файлы