Ссылка на приватное зеркало нашего сайта всего за 1$. Внимание количество ограничено!!!

2 сезон

iTunes

1 сезон

1

2 сезон

2 сезон

iTunes

1 сезон

RePack

30

Новинка

ВАЖНО

ИГРА 18+

pack

RePack

MK11
pack

Забери бонус

RePack

jed

!!Акция!!

Alien_Rage

RePack

fifa19

RePack

Assassins Creed: Odyssey

RePack

NEED FOR SPEED™ PAYBACK

4 сезон

9 сезон

Бесстыжие 9 сезон

Все сериалы

все сериалы на PB.wtf

RePack

FAR CRY 5
  

Отель Эдельвейс (Юрий Рудый) [2019, Комедия, WEB-DLRip-AVC] [iTunes] pb.wtf

Отель Эдельвейс через торрент pb.wtf

Раздают: 2 [ 0 KB/s ]
Размер: 1.46 GB | Добавлен: 4 мес. 19 д. назад | Торрент скачан:117 раз
Скачать  

14-07-2020 02:10 Отель Эдельвейс Скачать торрент  

Отель Эдельвейс
Год выпуска: 2019
Страна: Украина
Выпущено: Content Film Group
Жанр: Комедия
Продолжительность: 01:27:12
Перевод: Не требуется | iTunes
Субтитры: отсутствуют

Режиссер: Юрий Рудый



В ролях: Сергей Комаровский, Василий Вирастюк, Анна Кузина, Артемий Егоров, Истан Розумный, Екатерина Рубашкина, Лев Сомов, Наталия Васько, Алексей Колесник, Максим Панькив

Описание: Молодой и задорный авантюрный Алекс больше всего стремится разбогатеть. Он узнает о месторождении золота далеко в Карпатских горах. Есть только одна проблема – именно на месте месторождения стоит старинное поместье, в котором размещается отель. Продавать свой отель владелец наотрез отказывается. Поэтому остается только один путь – влюбить в себя его дочь Ирит и жениться на ней. Но и здесь не все гладко – Ирит помолвлена и вот-вот должна состояться свадьба.

Качество: WEB-DLRip-AVC
Формат: MKV

Видео: 1024x424 (2,40:1), 24 fps, MPEG-4 AVC, 2009 Кbps avg, 0.193 bit/pixel
Аудио: 48 kHz, AC3 Dolby Digital, 3/2 (L,C,R,l,r) + LFE ch, ~384 kbps
скриншот  скриншот  скриншот  скриншот  скриншот  

Общее
Уникальный идентификатор : 162516252812348073372638117612919550942 (0x7A437DE4E824C931770CC627FFED73DE)
Полное имя : Hotel.Edelveys.2019.WEB_DLRip.146Gb.x264.mkv
Формат : Matroska
Версия формата : Version 4
Размер файла : 1,46 Гбайт
Продолжительность : 1 ч. 27 м.
Общий поток : 2 392 Кбит/сек
Название фильма : Отель Эдельвейс (2019)
Дата кодирования : UTC 2020-07-13 07:53:15
Программа кодирования : mkvmerge v47.0.0 ('Black Flag') 64-bit
Библиотека кодирования : libebml v1.3.10 + libmatroska v1.5.2
Обложка : Yes
Attachments : cover.jpg

Видео
Идентификатор : 1
Формат : AVC
Формат/Информация : Advanced Video Codec
Профиль формата : High@L4.1
Настройки формата : CABAC / 9 Ref Frames
Параметр CABAC формата : Да
Параметр RefFrames формата : 9 кадров
Идентификатор кодека : V_MPEG4/ISO/AVC
Продолжительность : 1 ч. 27 м.
Битрейт : 2 009 Кбит/сек
Ширина : 1 024 пикселя
Высота : 424 пикселя
Соотношение сторон : 2,40:1
Режим частоты кадров : Постоянный
Частота кадров : 24,000 кадра/сек
Цветовое пространство : YUV
Субдискретизация насыщенности : 4:2:0
Битовая глубина : 8 бит
Тип развёртки : Прогрессивная
Бит/(Пиксели*Кадры) : 0.193
Размер потока : 1,22 Гбайт (84%)
Заголовок : #stillet
Библиотека кодирования : x264 core 152 r2851bm ba24899
Настройки программы : cabac=1 / ref=9 / deblock=1:-2:-2 / analyse=0x3:0x113 / me=umh / subme=10 / psy=1 / psy_rd=1.00:0.15 / mixed_ref=1 / me_range=32 / chroma_me=1 / trellis=2 / 8x8dct=1 / cqm=0 / deadzone=21,11 / fast_pskip=0 / chroma_qp_offset=-3 / threads=12 / lookahead_threads=3 / sliced_threads=0 / nr=0 / decimate=0 / interlaced=0 / bluray_compat=0 / constrained_intra=0 / bframes=10 / b_pyramid=2 / b_adapt=2 / b_bias=0 / direct=3 / weightb=1 / open_gop=0 / weightp=2 / keyint=240 / keyint_min=24 / scenecut=40 / intra_refresh=0 / rc=2pass / mbtree=0 / bitrate=2009 / ratetol=1.0 / qcomp=0.60 / qpmin=0 / qpmax=69 / qpstep=4 / cplxblur=20.0 / qblur=0.5 / ip_ratio=1.40 / pb_ratio=1.30 / aq=1:1.00
Язык : English
Default : Да
Forced : Нет

Аудио
Идентификатор : 2
Формат : AC-3
Формат/Информация : Audio Coding 3
Коммерческое название : Dolby Digital
Идентификатор кодека : A_AC3
Продолжительность : 1 ч. 27 м.
Вид битрейта : Постоянный
Битрейт : 384 Кбит/сек
Каналы : 6 каналов
Channel layout : L R C LFE Ls Rs
Частота : 48,0 КГц
Частота кадров : 31,250 кадров/сек (1536 SPF)
Метод сжатия : С потерями
Размер потока : 240 Мбайт (16%)
Заголовок : iTunes
Язык : Russian
Default : Да
Forced : Нет

Меню
00:00:00.000 : en:Глава 1
00:07:32.500 : en:Глава 2
00:13:56.375 : en:Глава 3
00:20:23.750 : en:Глава 4
00:27:44.166 : en:Глава 5
00:35:10.041 : en:Глава 6
00:42:16.291 : en:Глава 7
00:48:37.916 : en:Глава 8
00:55:02.582 : en:Глава 9
01:02:36.123 : en:Глава 10
01:10:24.289 : en:Глава 11
01:17:07.164 : en:Глава 12

pb.wtf



Скачать Отель Эдельвейс через торрент https://d.radikal.ru/d14/2007/86/c02ba0d1aff7.png Скачать фильм Отель Эдельвейс через торрент бесплантно в хорошем качестве Описание: Молодой и задорный авантюрный Алекс больше всего стремится разбогатеть. Он узнает о месторождении золота далеко в Карпатских ... 7.8 10 4
Торрент: Зарегистрирован [2020-07-14 02:10] · скачан: 117 раз
Статус: √ проверено
Размер: 1.46 GB
Как cкачать? Как скачать Отель Эдельвейс через торрент | qTorrent

% Раздел Тема Автор DL S | L
Наши новые фильмы 2018-2019 [ 745 MB ] Отель Эдельвейс [2019 WEB-DLRip] bober100 Скачать
1 | 0
Наши новые фильмы 2018-2019 [ 1.46 GB ] Отель Эдельвейс [2019 WEB-DLRip] bober100 Скачать
5 | 0
Наши фильмы (HD, WEB-DL 720p, 1080p) [ 3.03 GB ] Отель Эдельвейс [2019 WEB-DL 1080p] bober100 Скачать
1 | 0

28-11-2019 20:33  

Отключить всю рекламу на сайте

15-07-2020 16:53 Отель Эдельвейс Скачать торрент  

Герои - Алекс, Ирит. Фильм хохлятский - в ролях Сережа, Вася, Аня и др.. Да, пришел евросоюз в хохляндию..pb.wtf



    Дорогой пользователь! Огромная просьба, поблагодарите релизера, оцените раздачу и оставьте свои комментарий, если Вы скачали Отель Эдельвейс через торрент бесплатно! Внесите свою лепту в развитие PiratBit!
    Комментировать посты могут только пользователи прошедшие не сложную регистрацию
    Показать сообщения:    

    Отель Эдельвейс через торрент
    Скачать бесплатно Отель Эдельвейс
    Отель Эдельвейс скачать торрент
    Отель Эдельвейс смотреть онлайн
    Cкачать фильм Отель Эдельвейс бесплатно
    Отель Эдельвейс скачать торрент в хорошем качестве
    Отель Эдельвейс смотреть онлайн бесплатно в хорошем качестве


    Вы не можете начинать темы
    Вы не можете отвечать на сообщения
    Вы не можете редактировать свои сообщения
    Вы не можете удалять свои сообщения
    Вы не можете голосовать в опросах
    Вы не можете прикреплять файлы к сообщениям
    Вы можете скачивать файлы