2 сезон

iTunes

MVO

1

2 сезон

iTunes

iTunes

1 сезон

RePack

30

Новинка

ВАЖНО

ИГРА 18+

pack

RePack

MK11
pack

Легкие деньги

RePack

jed

RePack

fifa19

RePack

RDR2

RePack

NEED FOR SPEED™ PAYBACK

4 сезон

9 сезон

Бесстыжие 9 сезон

Все сериалы

все сериалы на PB.wtf

RePack

FAR CRY 5

Anonymous, добрый день, мы не успеваем собрать деньги на оплату серверов за декабрь и январь, помогите нам пожалуйста в это трудное время. В качестве благодарности мы отключим Вам всю рекламу на сайте (укажите свой ник в строку Ваше имя)!

×
  
Magnet ссылка

Великий уравнитель 2 / The Equalizer 2 (Антуан Фукуа) [2018 г., боевик, триллер, криминал, BDRip 720p / 60 FPS, Дубляж BD CEE] от R.G. HD-Films pb.wtf

Великий уравнитель 2 через торрент pb.wtf

Раздают: 1 [ 0 KB/s ]
Размер: 3.32 GB | Добавлен: 6 мес. назад | Торрент скачан:189 раз
Скачать  

14-07-2020 17:25 Великий уравнитель 2 Скачать торрент  

Великий уравнитель 2 / The Equalizer 2
Год выпуска: 2018
Страна: США
Жанр: боевик, триллер, криминал
Продолжительность: 02:00:57
Перевод: Дубляж BD CEE
Субтитры: Russian, English

Режиссер: Антуан Фукуа

Бюджет: $62 000 000
Премьера в мире: 19 июля 2018

rating

В ролях: Дензел Вашингтон, Педро Паскаль, Билл Пуллман, Мелисса Лео, Джонатан Скарф, Сакина Джэффри, Кэролайн Дэй, Орсон Бин, Хайди Гарроу, Эштон Сандерс

Описание: Бывший спецагент Роберт Маккол продолжает помогать хорошим, по его мнению, людям и наказывать плохих. ЦРУ считает его погибшим, и только старый друг и бывшая коллега Сьюзан знает его тайну и периодически заходит в гости. Когда на очередном задании в Брюсселе Сьюзан убивают, пытаясь замаскировать это под ограбление, Маккол решает разобраться и отомстить всем причастным.

Качество: BDRip 720p / 60 FPS
Формат: MKV
Видео кодек: H.264
Аудио кодек: AC3
Видео: x264, 1280 x 536 ( 2,40:1 ), 3542 kbps, 60,000 fps, ( 0.086 bpp)
Аудио#1: Русский, AC-3, 48.0 KHz, 6 ch, 384 Kbps Dub [Blu-Ray EUR]
Релиз от:

скриншот   скриншот   скриншот   скриншот   скриншот   скриншот  Автор рипа: slaventi-69
x264 [info]: frame I:1730 Avg QP:16.22 size: 68357
x264 [info]: frame P:101162 Avg QP:17.34 size: 16579
x264 [info]: frame B:332106 Avg QP:20.59 size: 4260
x264 [info]: consecutive B-frames: 2.5% 2.1% 5.6% 12.0% 67.5% 10.3%


Общее
Уникальный идентификатор : 234224038707951692986590488364739015256 (0xB035E8B331DF8BD38C930DF5D6ED3258)
Полное имя : F:\The.Equalizer.2.(2018).BDRip.720p.(60 Fps).mkv
Формат : Matroska
Версия формата : Version 4
Размер файла : 3,32 Гбайт
Продолжительность : 2 ч. 0 м.
Общий поток : 3928 Кбит/сек
Название фильма : Великий уравнитель 2 / The Equalizer 2 (2018) BDRip 720p (60 Fps)
Дата кодирования : UTC 2020-07-13 16:59:14
Программа кодирования : mkvmerge v12.0.0 ('Trust / Lust') 64bit
Библиотека кодирования : libebml v1.3.4 + libmatroska v1.4.5

Видео
Идентификатор : 1
Формат : AVC
Формат/Информация : Advanced Video Codec
Профиль формата : High@L4.1
Настройки формата : CABAC / 8 Ref Frames
Параметр CABAC формата : Да
Параметр RefFrames формата : 8 кадров
Идентификатор кодека : V_MPEG4/ISO/AVC
Продолжительность : 2 ч. 0 м.
Битрейт : 3542 Кбит/сек
Ширина : 1280 пикселей
Высота : 536 пикселей
Соотношение сторон : 2,40:1
Режим частоты кадров : Постоянный
Частота кадров : 60,000 кадров/сек
Цветовое пространство : YUV
Субдискретизация насыщенности : 4:2:0
Битовая глубина : 8 бит
Тип развёртки : Прогрессивная
Бит/(Пиксели*Кадры) : 0.086
Размер потока : 2,99 Гбайт (90%)
Заголовок : slaventi-69 ( R.G. HD-Films | 60 fps )
Библиотека кодирования : x264 core 130 r2273 b3065e6
Настройки программы : cabac=1 / ref=8 / deblock=1:-1:-1 / analyse=0x3:0x113 / me=umh / subme=9 / psy=1 / psy_rd=1.00:0.00 / mixed_ref=1 / me_range=28 / chroma_me=1 / trellis=2 / 8x8dct=1 / cqm=0 / deadzone=21,11 / fast_pskip=0 / chroma_qp_offset=-2 / threads=4 / lookahead_threads=2 / sliced_threads=0 / nr=0 / decimate=1 / interlaced=0 / bluray_compat=0 / constrained_intra=0 / bframes=5 / b_pyramid=2 / b_adapt=2 / b_bias=0 / direct=3 / weightb=1 / open_gop=0 / weightp=2 / keyint=600 / keyint_min=23 / scenecut=40 / intra_refresh=0 / rc=crf / mbtree=0 / crf=17.5 / qcomp=0.60 / qpmin=0 / qpmax=69 / qpstep=4 / ip_ratio=1.40 / pb_ratio=1.30 / aq=1:1.00
Язык : English
Default : Да
Forced : Нет

Аудио
Идентификатор : 2
Формат : AC-3
Формат/Информация : Audio Coding 3
Коммерческое название : Dolby Digital
Идентификатор кодека : A_AC3
Продолжительность : 2 ч. 0 м.
Вид битрейта : Постоянный
Битрейт : 384 Кбит/сек
Каналы : 6 каналов
Channel layout : L R C LFE Ls Rs
Частота : 48,0 КГц
Частота кадров : 31,250 кадров/сек (1536 SPF)
Битовая глубина : 16 бит
Метод сжатия : С потерями
Размер потока : 332 Мбайт (10%)
Заголовок : Dub [Blu-ray CEE]
Язык : Russian
ServiceKind/String : Complete Main
Default : Да
Forced : Нет

Текст #1
Идентификатор : 3
Формат : UTF-8
Идентификатор кодека : S_TEXT/UTF8
Идентификатор кодека/Информация : UTF-8 Plain Text
Продолжительность : 1 ч. 59 м.
Битрейт : 1 бит/сек
ElementCount : 43
Размер потока : 1,60 Кбайт (0%)
Заголовок : Forced
Язык : Russian
Default : Да
Forced : Нет

Текст #2
Идентификатор : 4
Формат : UTF-8
Идентификатор кодека : S_TEXT/UTF8
Идентификатор кодека/Информация : UTF-8 Plain Text
Продолжительность : 1 ч. 59 м.
Битрейт : 57 бит/сек
ElementCount : 1062
Размер потока : 50,3 Кбайт (0%)
Заголовок : iTunes
Язык : Russian
Default : Нет
Forced : Нет

Текст #3
Идентификатор : 5
Формат : UTF-8
Идентификатор кодека : S_TEXT/UTF8
Идентификатор кодека/Информация : UTF-8 Plain Text
Продолжительность : 1 ч. 52 м.
Битрейт : 40 бит/сек
ElementCount : 1283
Размер потока : 33,6 Кбайт (0%)
Заголовок : Full
Язык : English
Default : Нет
Forced : Нет

Текст #4
Идентификатор : 6
Формат : UTF-8
Идентификатор кодека : S_TEXT/UTF8
Идентификатор кодека/Информация : UTF-8 Plain Text
Продолжительность : 1 ч. 59 м.
Битрейт : 50 бит/сек
ElementCount : 1713
Размер потока : 44,3 Кбайт (0%)
Заголовок : SDH
Язык : English
Default : Нет
Forced : Нет

Меню
00:00:00.000 : en:Chapter 01
00:01:31.756 : en:Chapter 02
00:01:58.576 : en:Chapter 03
00:04:54.126 : en:Chapter 04
00:05:33.039 : en:Chapter 05
00:05:51.892 : en:Chapter 06
00:06:24.091 : en:Chapter 07
00:06:55.496 : en:Chapter 08
00:07:06.634 : en:Chapter 09
00:07:35.622 : en:Chapter 10
00:07:53.763 : en:Chapter 11
00:08:09.780 : en:Chapter 12
00:08:21.792 : en:Chapter 13
00:08:38.934 : en:Chapter 14
00:09:08.839 : en:Chapter 15
00:09:44.375 : en:Chapter 16
00:11:32.232 : en:Chapter 17
00:11:41.075 : en:Chapter 18
00:12:05.724 : en:Chapter 19
00:13:03.782 : en:Chapter 20
00:15:24.673 : en:Chapter 21
00:15:58.291 : en:Chapter 22
00:16:19.186 : en:Chapter 23
00:16:54.346 : en:Chapter 24
00:17:58.326 : en:Chapter 25
00:19:33.547 : en:Chapter 26
00:20:02.992 : en:Chapter 27
00:20:55.962 : en:Chapter 28
00:23:04.633 : en:Chapter 29
00:23:50.179 : en:Chapter 30
00:23:59.688 : en:Chapter 31
00:24:13.993 : en:Chapter 32
00:24:20.708 : en:Chapter 33
00:25:47.587 : en:Chapter 34
00:28:22.616 : en:Chapter 35
00:28:39.425 : en:Chapter 36
00:31:49.907 : en:Chapter 37
00:32:04.588 : en:Chapter 38
00:32:13.640 : en:Chapter 39
00:34:11.172 : en:Chapter 40
00:35:14.570 : en:Chapter 41
00:36:09.833 : en:Chapter 42
01:31:39.243 : en:Chapter 43
01:32:20.658 : en:Chapter 44
01:32:41.014 : en:Chapter 45
01:33:19.969 : en:Chapter 46
01:34:56.524 : en:Chapter 47
01:41:27.832 : en:Chapter 48
01:41:36.381 : en:Chapter 49
01:42:24.720 : en:Chapter 50
01:46:59.496 : en:Chapter 51

Просьба к переливающим на другие сайты, в оформлении указывайте пожалуйста авторство группы R.G. HD-Films pb.wtf



Скачать Великий уравнитель 2 через торрент https://i5.imageban.ru/out/2018/11/12/cffa3a637257d38edaea32c9a62d5bd8.png Скачать фильм Великий уравнитель 2 через торрент бесплантно в хорошем качестве Описание: Бывший спецагент Роберт Маккол продолжает помогать хорошим, по его мнению, людям и наказывать плохих. ЦРУ считает его погибшим, и ... 9.9 10 13
Info! Золотая раздача, скачанное не засчитывается.
Торрент: Зарегистрирован [2020-07-14 17:25] · скачан: 189 раз
Статус: √ проверено
Размер: 3.32 GB
Как cкачать? Как скачать Великий уравнитель 2 через торрент | UTorrent

28-11-2019 20:33  

Отключить всю рекламу на сайте

14-07-2020 18:37 Великий уравнитель 2 Скачать торрент  

О да! Великий и неповторимый Дензел Вашингтон!pb.wtf



17-07-2020 12:42 Великий уравнитель 2 Скачать торрент  

подожду 1080рpb.wtf



    Дорогой пользователь! Огромная просьба, поблагодарите релизера, оцените раздачу и оставьте свои комментарий, если Вы скачали Великий уравнитель 2 через торрент бесплатно! Внесите свою лепту в развитие PiratBit!
    Комментировать посты могут только пользователи прошедшие не сложную регистрацию
    Показать сообщения:    

    Великий уравнитель 2 через торрент
    Скачать бесплатно Великий уравнитель 2
    Великий уравнитель 2 скачать торрент
    Великий уравнитель 2 смотреть онлайн
    Cкачать фильм Великий уравнитель 2 бесплатно
    Великий уравнитель 2 скачать торрент в хорошем качестве
    Великий уравнитель 2 смотреть онлайн бесплатно в хорошем качестве


    Вы не можете начинать темы
    Вы не можете отвечать на сообщения
    Вы не можете редактировать свои сообщения
    Вы не можете удалять свои сообщения
    Вы не можете голосовать в опросах
    Вы не можете прикреплять файлы к сообщениям
    Вы можете скачивать файлы