Ссылка на приватное зеркало всего за 1$. Внимание количество ограничено!!!

iTunes

iTunes

iTunes

1

iTunes

iTunes

iTunes

WEBRip

iTunes

30
pack

$ от Little Big

ВАЖНО

!!Акция!!

Alien_RageХит недели

RePack

Resident Evil 21

ИГРА 18+

pack

RePack

jed

!!Акция!!

Alien_Rage

RePack

fifa19

RePack

Assassins Creed: Odyssey

RePack

NEED FOR SPEED™ PAYBACK

4 сезон

9 сезон

Бесстыжие 9 сезон

Все сериалы

все сериалы на PB.wtf

RePack

FAR CRY 5
  

Тролли. Мировой тур в 3Д / Trolls World Tour 3D (Уолт Дорн, Дэвид П. Смит / Walt Dohrn, David P. Smith) [2020, мультфильм, мюзикл, фэнтези, комедия, приключения, BDRip, 1080p] OverUnder / Вертикальная стереопара (лицензия) pb.wtf

Тролли. Мировой тур в 3Д через торрент pb.wtf

Раздают: 2 [ 827 KB/s ]
Размер: 12.65 GB | Добавлен: 4 д. назад | Торрент скачан:2 раза
Скачать  

15-07-2020 13:45 Тролли. Мировой тур в 3Д Скачать торрент  

Тролли. Мировой тур / Trolls World Tour

Год выпуска: 2020
Страна: США (DreamWorks Animation, Universal Pictures)
Жанр: мультфильм, мюзикл, фэнтези, комедия, приключения, семейный
Продолжительность: 01:30:43

Перевод: Профессиональный дублированный (лицензия)
Русские субтитры: нет
Режиссеры: Уолт Дорн, Дэвид П. Смит / Walt Dohrn, David P. Smith

Роли озвучивали: Джастин Тимберлейк, Анна Кендрик, Джеймс Корден, Оззи Осборн, Рэйчел Блум, Андерсон Паак, Джордж Клинтон, Мэри Джей Блайдж, Келли Кларксон, Рон Фанчес

Описание: Поп-тролли в шоке – оказывается, мир музыки гораздо больше, чем они думали. Рейвы, оупен-эйры, классические концерты и, конечно, хип-хоп баттлы – впереди их ждет головокружительное веселье. Но неудержимая королева Рокс планирует уничтожить всё, чтобы миром безоговорочно правил хард-рок! Розочка, Цветан и их новые друзья отправляются в невероятное путешествие: им предстоит объединить всех троллей и помешать Рокс.

Сэмпл: http://sendfile.su/1571620

Качество: BDrip, 1080p
Контейнер: MKV
Формат 3D: OverUnder / Вертикальная стереопара
Порядок ракурсов: левый ракурс первый
Видео кодек: x264
Аудио кодек: AC3
Видео: Видео: AVC / High@L5.0 / 23,976 fps / 1920х2160 / 18,5 Мбит/сек
Аудио: Русский / AC3 / 48 KHz / 5.1 ch / 640 Кбит/сек(лицензия)
Аудио 2: Английский / AC3 / 48 KHz / 5.1 ch / 448 Кбит/сек

ВНИМАНИЕ ! На встроенных ТВ-плеерах работать не будет!!!

ТВ Samsung в названии которого есть надпись Ultra HD , и LG Ultra HD 800 серии, LG C6P, Xiaomi Mi TV 2, GRUNDIG VLE 8474 BL воспроизводят полные стереопары встроенными плеерами
Железные плееры на которых воспроизводятся полные стереопары:Popcorn C-200, Popcorn a-400, Dune HD Smart D1 , Dune HD DUO , Dune HD Smart H1 , Dune HD Smart B1 , Dune HD Max , Dune HD TV-303D, Dune HD TV-102, Dune HD Base 3D, Philips HMP7001, Aura HD, MECOOL BB2, Zidoo x9s, Lake I Cloud, MiBox 3
Чтобы изображение было на весь экран в плеере выставляем, если рип 1920х1600 - то выставляем 2.35:1 , если 1920х2160 - то выставляем 16:9

05.08.2020. Релиз обновлён. Русская звуковая дорожка iTunes заменена на лицензию.
Желающие, скачайте заново торрент-файл.
Общее
Уникальный идентификатор : 189896050303684450126556536878878307436 (0x8EDCA6223F5242AEA3937626B66A346C)
Полное имя : E:\видео\Trolls World Tour.Rip by SeRoGa00.mkv
Формат : Matroska
Версия формата : Version 2
Размер файла : 12,5 Гбайт
Продолжительность : 1 ч. 30 м.
Общий поток : 19,7 Мбит/сек
Дата кодирования : UTC 2020-07-15 13:05:32
Программа кодирования : mkvmerge v3.4.0 ('Rapunzel') сборка от May 15 2010 09:38:20
Библиотека кодирования : libebml v0.8.0 + libmatroska v0.9.0

Видео
Идентификатор : 1
Формат : AVC
Формат/Информация : Advanced Video Codec
Профиль формата : High@L5.0
Параметр CABAC формата : Да
Параметр ReFrames формата : 4 кадра
Идентификатор кодека : V_MPEG4/ISO/AVC
Продолжительность : 1 ч. 30 м.
Битрейт : 18,5 Мбит/сек
Ширина : 1920 пикселей
Высота : 2160 пикселей
Соотношение сторон : 0,889
Частота кадров : 23,976 кадра/сек
Цветовое пространство : YUV
Субдискретизация насыщенности : 4:2:0
Битовая глубина : 8 бит
Тип развёртки : Прогрессивная
Бит/(Пиксели*Кадры) : 0.186
Размер потока : 11,7 Гбайт (94%)
Заголовок : Rip by SeRoGa00
Библиотека кодирования : x264 core 157 r2969 d4099dd
Настройки программы : cabac=1 / ref=4 / deblock=1:-3:-3 / analyse=0x3:0x113 / me=umh / subme=10 / psy=1 / psy_rd=1.00:0.15 / mixed_ref=1 / me_range=24 / chroma_me=1 / trellis=2 / 8x8dct=1 / cqm=0 / deadzone=21,11 / fast_pskip=1 / chroma_qp_offset=-3 / threads=18 / lookahead_threads=6 / sliced_threads=0 / nr=0 / decimate=0 / interlaced=0 / bluray_compat=0 / constrained_intra=0 / bframes=10 / b_pyramid=2 / b_adapt=2 / b_bias=0 / direct=3 / weightb=1 / open_gop=0 / weightp=2 / keyint=250 / keyint_min=23 / scenecut=40 / intra_refresh=0 / rc_lookahead=60 / rc=crf / mbtree=1 / crf=16.5 / qcomp=0.60 / qpmin=10 / qpmax=69 / qpstep=4 / vbv_maxrate=40000 / vbv_bufsize=40000 / crf_max=0.0 / nal_hrd=none / filler=0 / ip_ratio=1.40 / aq=1:1.00
Язык : English
Default : Нет
Forced : Нет

Аудио #1
Идентификатор : 2
Формат : AC-3
Формат/Информация : Audio Coding 3
Расширение режима : CM (complete main)
Параметр Endianness формата : Big
Идентификатор кодека : A_AC3
Продолжительность : 1 ч. 30 м.
Вид битрейта : Постоянный
Битрейт : 640 Кбит/сек
Каналы : 6 каналов
Расположение каналов : Front: L C R, Side: L R, LFE
Частота : 48,0 КГц
Битовая глубина : 16 бит
Метод сжатия : С потерями
Размер потока : 249 Мбайт (2%)
Язык : Russian
Default : Да
Forced : Нет

Аудио #2
Идентификатор : 3
Формат : AC-3
Формат/Информация : Audio Coding 3
Расширение режима : CM (complete main)
Параметр Endianness формата : Big
Идентификатор кодека : A_AC3
Продолжительность : 1 ч. 30 м.
Вид битрейта : Постоянный
Битрейт : 448 Кбит/сек
Каналы : 6 каналов
Расположение каналов : Front: L C R, Side: L R, LFE
Частота : 48,0 КГц
Битовая глубина : 16 бит
Метод сжатия : С потерями
Размер потока : 291 Мбайт (2%)
Язык : English
Default : Нет
Forced : Нет

Меню
00:00:00.000 : en:00:00:00.000
00:05:12.769 : en:00:05:12.769
00:08:44.899 : en:00:08:44.899
00:12:51.729 : en:00:12:51.729
00:18:25.813 : en:00:18:25.813
00:22:58.835 : en:00:22:58.835
00:27:36.403 : en:00:27:36.403
00:30:34.582 : en:00:30:34.582
00:34:23.351 : en:00:34:23.351
00:38:27.137 : en:00:38:27.137
00:41:13.094 : en:00:41:13.094
00:46:19.275 : en:00:46:19.275
00:50:12.425 : en:00:50:12.425
00:54:22.925 : en:00:54:22.925
00:59:22.724 : en:00:59:22.724
01:03:39.273 : en:01:03:39.273
01:06:25.523 : en:01:06:25.523
01:10:18.296 : en:01:10:18.296
01:15:41.828 : en:01:15:41.828
01:21:19.916 : en:01:21:19.916
скриншот  

скриншот  

скриншот  

скриншот  

скриншот  

скриншот  

скриншот  

скриншот  
pb.wtf



Скачать Тролли. Мировой тур в 3Д через торрент https://b.radikal.ru/b31/2007/ad/890a8a0236f5.png Скачать фильм Тролли. Мировой тур в 3Д через торрент бесплантно в хорошем качестве Описание: Поп-тролли в шоке – оказывается, мир музыки гораздо больше, чем они думали. Рейвы, оупен-эйры, классические концерты и, конечно, ... 5 10 1
Торрент: Зарегистрирован [2020-08-05 05:28] · скачан: 2 раз
Статус: √ проверено
Размер: 12.65 GB
Как cкачать? Как скачать Тролли. Мировой тур в 3Д через торрент | qTorrent



Последний раз редактировалось: serega768 (2020-08-05 05:38), всего редактировалось 1 раз

28-11-2019 20:33  

Отключить всю рекламу на сайте

    Дорогой пользователь! Огромная просьба, поблагодарите релизера, оцените раздачу и оставьте свои комментарий, если Вы скачали Тролли. Мировой тур в 3Д через торрент бесплатно! Внесите свою лепту в развитие PiratBit!
    Комментировать посты могут только пользователи прошедшие не сложную регистрацию
    Показать сообщения:    

    Тролли. Мировой тур в 3Д через торрент
    Скачать бесплатно Тролли. Мировой тур в 3Д
    Тролли. Мировой тур в 3Д скачать торрент
    Тролли. Мировой тур в 3Д смотреть онлайн
    Cкачать фильм Тролли. Мировой тур в 3Д бесплатно
    Тролли. Мировой тур в 3Д скачать торрент в хорошем качестве
    Тролли. Мировой тур в 3Д смотреть онлайн бесплатно в хорошем качестве


    Вы не можете начинать темы
    Вы не можете отвечать на сообщения
    Вы не можете редактировать свои сообщения
    Вы не можете удалять свои сообщения
    Вы не можете голосовать в опросах
    Вы не можете прикреплять файлы к сообщениям
    Вы можете скачивать файлы