Ссылка на приватное зеркало нашего сайта всего за 1$. Внимание количество ограничено!!!

2 сезон

iTunes

1 сезон

1

2 сезон

2 сезон

iTunes

1 сезон

RePack

30

Новинка

ВАЖНО

ИГРА 18+

pack

RePack

MK11
pack

Забери бонус

RePack

jed

!!Акция!!

Alien_Rage

RePack

fifa19

RePack

Assassins Creed: Odyssey

RePack

NEED FOR SPEED™ PAYBACK

4 сезон

9 сезон

Бесстыжие 9 сезон

Все сериалы

все сериалы на PB.wtf

RePack

FAR CRY 5
  

Тайны кроссвордов: Смертельная загадка / The Crossword Mysteries: A Puzzle to Die For (Дон МакКатчен) [2019, Криминал, детектив, WEB-DL 1080p] MVO [HDRezka Studio] pb.wtf

Тайны кроссвордов: Смертельная загадка через торрент pb.wtf

Раздают: 2 [ 0 KB/s ]
Размер: 5.93 GB | Добавлен: 4 мес. 13 д. назад | Торрент скачан:191 раз
Скачать  

16-07-2020 03:52 Тайны кроссвордов: Смертельная загадка Скачать торрент  

Тайны кроссвордов: Смертельная загадка | The Crossword Mysteries: A Puzzle to Die For
Год выпуска: 2019
Страна: США
Студия: HP Crossword Mysteries Productions, Hideaway Pictures
Жанр: Криминал, детектив
Продолжительность: 01:24:26
Перевод: Профессиональный (многоголосый) | HDRezka Studio
Субтитры: Русские (Forced), английские

Режиссер: Дон МакКатчен

rating

В ролях: Лейси Чэберт, Бреннан Эллиотт, Барбара Нивен, Зак Смаду, Женевьева Кенг, Анна Хардвик, Крис Фаркуар, Александр Нунез, Харрис Шор, Вики Ким, Катрин МакГрегор, Кэти Малони, Джейсон Бликер, Джевелл Блэкман, Джеймс Кейд

Описание: Тесс — редактор-составитель кроссвордов, ведущая тихую и спокойную жизнь. Однажды уютный мирок женщины переворачивается с ног на голову, когда выясняется, что в ее кроссвордах полиция обнаружила улики, связанные с целым рядом преступлений. Тесс намерена доказать свою непричастность к произошедшему и соглашается присоединиться к расследованию, которое возглавляет детектив О'Коннор. Ее энциклопедические знания и профессиональные навыки О'Коннора, станут ключевыми факторами в поисках преступника затеявшего смертельную игру...

Качество: WEB-DL 1080p
Формат: MKV

Видео: MPEG-4 AVC, 9227 Kбит/с, 1920x1080, 23.976 кадр/с
Аудио#1: Русский (АС3, 2 ch, 192 Кбит/с, 48.0 KHz) Профессиональный (многоголосый, закадровый) HDRezka Studio
Аудио#2: Английский (АС3, 6 ch, 640 Кбит/с, 48.0 KHz)
скриншот  скриншот  скриншот  скриншот  скриншот  

Источник: Crossword.Mysteries.A.Puzzle.to.Die.For.2019.1080p.AMZN.WEB-DL.DDP5.1.H.264-ABM
General
Unique ID: 247584344225741901650358529460443321301 (0xBA43029E78B4D8B9A85FF995854493D5)
Complete name: Crossword.Mysteries.A.Puzzle.to.Die.For.2019.AMZN.WEB-DL.1080p.mkv
Format: Matroska
Format version: Version 4
File size: 5.93 GiB
Duration: 1 h 24 min
Overall bit rate: 10.1 Mb/s
Encoded date: UTC 2020-07-14 16:41:34
Writing application: mkvmerge v7.1.0 ('Good Love') 64bit built on Jul 27 2014 13:06:55
Writing library: libebml v1.3.0 + libmatroska v1.4.1

Video
ID: 1
Format: AVC
Format/Info: Advanced Video Codec
Format profile: High@L4
Format settings: CABAC / 4 Ref Frames
Format settings, CABAC: Yes
Format settings, Reference fra: 4 frames
Codec ID: V_MPEG4/ISO/AVC
Duration: 1 h 24 min
Bit rate mode: Constant
Bit rate: 9 227 kb/s
Nominal bit rate: 10 000 kb/s
Width: 1 920 pixels
Height: 1 080 pixels
Display aspect ratio: 16:9
Frame rate mode: Constant
Frame rate: 23.976 (24000/1001) FPS
Color space: YUV
Chroma subsampling: 4:2:0
Bit depth: 8 bits
Scan type: Progressive
Bits/(Pixel*Frame): 0.186
Stream size: 5.44 GiB (92%)
Language: English
Default: Yes
Forced: No
Color range: Limited
Color primaries: BT.709
Transfer characteristics: BT.709
Matrix coefficients: BT.709

Audio #1
ID: 2
Format: AC-3
Format/Info: Audio Coding 3
Commercial name: Dolby Digital
Codec ID: A_AC3
Duration: 1 h 24 min
Bit rate mode: Constant
Bit rate: 192 kb/s
Channel(s): 2 channels
Channel layout: L R
Sampling rate: 48.0 kHz
Frame rate: 31.250 FPS (1536 SPF)
Compression mode: Lossy
Stream size: 116 MiB (2%)
Title: MVO | HDRezka Studio
Language: Russian
Service kind: Complete Main
Default: Yes
Forced: No

Audio #2
ID: 3
Format: AC-3
Format/Info: Audio Coding 3
Commercial name: Dolby Digital
Codec ID: A_AC3
Duration: 1 h 24 min
Bit rate mode: Constant
Bit rate: 640 kb/s
Channel(s): 6 channels
Channel layout: L R C LFE Ls Rs
Sampling rate: 48.0 kHz
Frame rate: 31.250 FPS (1536 SPF)
Compression mode: Lossy
Stream size: 387 MiB (6%)
Language: English
Service kind: Complete Main
Default: No
Forced: No

Text #1
ID: 4
Format: UTF-8
Codec ID: S_TEXT/UTF8
Codec ID/Info: UTF-8 Plain Text
Duration: 1 h 17 min
Bit rate: 1 b/s
Count of elements: 14
Stream size: 802 Bytes (0%)
Title: Forced
Language: Russian
Default: Yes
Forced: No

Text #2
ID: 5
Format: UTF-8
Codec ID: S_TEXT/UTF8
Codec ID/Info: UTF-8 Plain Text
Duration: 1 h 23 min
Bit rate: 103 b/s
Count of elements: 1707
Stream size: 63.8 KiB (0%)
Language: English
Default: No
Forced: No

pb.wtf



Скачать Тайны кроссвордов: Смертельная загадка через торрент http://c.radikal.ru/c32/2007/cb/d6840efc7047.jpg Скачать фильм Тайны кроссвордов: Смертельная загадка через торрент бесплантно в хорошем качестве Описание: Тесс — редактор-составитель кроссвордов, ведущая тихую и спокойную жизнь. Однажды уютный мирок женщины переворачивается с ног на ... 9.4 10 7
Торрент: Зарегистрирован [2020-07-16 03:52] · скачан: 191 раз
Статус: √ проверено
Размер: 5.93 GB
Как cкачать? Как скачать Тайны кроссвордов: Смертельная загадка через торрент | qTorrent

28-11-2019 20:33  

Отключить всю рекламу на сайте

    Дорогой пользователь! Огромная просьба, поблагодарите релизера, оцените раздачу и оставьте свои комментарий, если Вы скачали Тайны кроссвордов: Смертельная загадка через торрент бесплатно! Внесите свою лепту в развитие PiratBit!
    Комментировать посты могут только пользователи прошедшие не сложную регистрацию
    Показать сообщения:    

    Тайны кроссвордов: Смертельная загадка через торрент
    Скачать бесплатно Тайны кроссвордов: Смертельная загадка
    Тайны кроссвордов: Смертельная загадка скачать торрент
    Тайны кроссвордов: Смертельная загадка смотреть онлайн
    Cкачать фильм Тайны кроссвордов: Смертельная загадка бесплатно
    Тайны кроссвордов: Смертельная загадка скачать торрент в хорошем качестве
    Тайны кроссвордов: Смертельная загадка смотреть онлайн бесплатно в хорошем качестве


    Вы не можете начинать темы
    Вы не можете отвечать на сообщения
    Вы не можете редактировать свои сообщения
    Вы не можете удалять свои сообщения
    Вы не можете голосовать в опросах
    Вы не можете прикреплять файлы к сообщениям
    Вы можете скачивать файлы