Ссылка на приватное зеркало нашего сайта всего за 1$. Внимание количество ограничено!!!

2 сезон

iTunes

1 сезон

1

2 сезон

2 сезон

iTunes

1 сезон

RePack

30

Ultimate

ВАЖНО

ИГРА 18+

pack

RePack

MK11
pack

Забери бонус

RePack

jed

!!Акция!!

Alien_Rage

RePack

fifa19

RePack

Assassins Creed: Odyssey

RePack

NEED FOR SPEED™ PAYBACK

4 сезон

9 сезон

Бесстыжие 9 сезон

Все сериалы

все сериалы на PB.wtf

RePack

FAR CRY 5
  

Девушка-воскресенье / Sunday Girl (Питер Амброзио) [2019, Комедия, WEB-DL 1080p] MVO [Creative Arts Media] pb.wtf

Девушка-воскресенье через торрент pb.wtf

Размер: 2.68 GB | Добавлен: 4 мес. 15 д. назад | Торрент скачан:33 раза
Скачать  

18-07-2020 03:35 Девушка-воскресенье Скачать торрент  

Девушка-воскресенье | Sunday Girl
Год выпуска: 2019
Страна: США
Студия: Crestmont Pictures, Infinite Focus
Жанр: Комедия
Продолжительность: 01:17:27
Перевод: Профессиональный (многоголосый) | Официальный перевод по заказу Creative Arts Media
Субтитры: Английские

Режиссер: Питер Амброзио

rating


В ролях: Дэйв Дэвис, Кэролайн Фурми, Иван Хоуи мл., Эван Хольцман, Эштон Ли, Сторм Ли, Энтони Марбл, Билал Мир, Даша Некрасова, Лала Нестор, Джефф Пирсон, Джозеф Поликвин, Джошуа Пауэл, Морган Робертс, Брэндон Стэйси

Описание: Наташа за один день расстаётся с четырьмя из пяти своих парней, чтобы остаться с Джорджем.

Качество: WEB-DL 1080p
Формат: MKV

Видео: MPEG-4 AVC, ~ 4467 Кбит/с, 1920x720
Аудио#1: Русский (AC3, 2 ch, 192 Кбит/с)
Аудио#2: английский (AC3, 2 ch, 192 Кбит/с)
скриншот  скриншот  скриншот  скриншот  

Общее
Уникальный идентификатор : 214680407438447793097663341518114706518 (0xA181F148B8C4CDEC8C9F72167982D456)
Полное имя : C:\Sunday.Girl.(2019).WEB-DL.1080p.ExKinoRay.mkv
Формат : Matroska
Версия формата : Version 2
Размер файла : 2,68 Гбайт
Продолжительность : 1 ч. 17 м.
Общий поток : 4949 Кбит/сек
Дата кодирования : UTC 2020-07-18 02:11:40
Программа кодирования : mkvmerge v5.8.0 ('No Sleep / Pillow') built on Sep 2 2012 15:37:04
Библиотека кодирования : libebml v1.2.3 + libmatroska v1.3.0

Видео
Идентификатор : 1
Формат : AVC
Формат/Информация : Advanced Video Codec
Профиль формата : High@L4
Настройки формата : CABAC / 5 Ref Frames
Параметр CABAC формата : Да
Параметр RefFrames формата : 5 кадров
Идентификатор кодека : V_MPEG4/ISO/AVC
Продолжительность : 1 ч. 17 м.
Битрейт : 4467 Кбит/сек
Ширина : 1920 пикселей
Высота : 720 пикселей
Соотношение сторон : 2,667
Режим частоты кадров : Постоянный
Частота кадров : 23,976 (24000/1001) кадра/сек
Цветовое пространство : YUV
Субдискретизация насыщенности : 4:2:0
Битовая глубина : 8 бит
Тип развёртки : Прогрессивная
Бит/(Пиксели*Кадры) : 0.135
Размер потока : 2,42 Гбайт (90%)
Язык : English
Default : Да
Forced : Нет
Цветовой диапазон : Limited
Основные цвета : BT.709
Характеристики трансфера : BT.709
Коэффициенты матрицы : BT.709

Аудио #1
Идентификатор : 2
Формат : AC-3
Формат/Информация : Audio Coding 3
Коммерческое название : Dolby Digital
Идентификатор кодека : A_AC3
Продолжительность : 1 ч. 17 м.
Вид битрейта : Постоянный
Битрейт : 192 Кбит/сек
Каналы : 2 канала
ChannelLayout : L R
Частота : 48,0 КГц
Частота кадров : 31,250 кадров/сек (1536 SPF)
Битовая глубина : 16 бит
Метод сжатия : С потерями
Размер потока : 106 Мбайт (4%)
Язык : Russian
ServiceKind/String : Complete Main
Default : Да
Forced : Нет

Аудио #2
Идентификатор : 3
Формат : AC-3
Формат/Информация : Audio Coding 3
Коммерческое название : Dolby Digital
Идентификатор кодека : A_AC3
Продолжительность : 1 ч. 17 м.
Вид битрейта : Постоянный
Битрейт : 192 Кбит/сек
Каналы : 2 канала
ChannelLayout : L R
Частота : 48,0 КГц
Частота кадров : 31,250 кадров/сек (1536 SPF)
Битовая глубина : 16 бит
Метод сжатия : С потерями
Размер потока : 106 Мбайт (4%)
Язык : English
ServiceKind/String : Complete Main
Default : Нет
Forced : Нет

Текст
Идентификатор : 4
Формат : UTF-8
Идентификатор кодека : S_TEXT/UTF8
Идентификатор кодека/Информация : UTF-8 Plain Text
Язык : English
Default : Нет
Forced : Нет

Меню
00:00:00.000 : en:Chapter 1
00:09:42.248 : en:Chapter 2
00:19:25.456 : en:Chapter 3
00:30:15.439 : en:Chapter 4
00:40:07.155 : en:Chapter 5
00:52:19.011 : en:Chapter 6
01:00:40.302 : en:Chapter 7
01:09:46.472 : en:Chapter 8
01:15:07.166 : en:Chapter 9

pb.wtf



Скачать Девушка-воскресенье через торрент https://b.radikal.ru/b32/2007/56/a0a1625ce73f.jpg Скачать фильм Девушка-воскресенье через торрент бесплантно в хорошем качестве Описание: Наташа за один день расстаётся с четырьмя из пяти своих парней, чтобы остаться с ... 10 10 4
Торрент: Зарегистрирован [2020-07-18 03:35] · скачан: 33 раз
Статус: T временная
Размер: 2.68 GB
Как cкачать? Как скачать Девушка-воскресенье через торрент | qTorrent

% Раздел Тема Автор DL S | L
T Фильмы 2019-2020 [DVDrip, WEB-DLRip, HDrip] (DUB, MVO) [ 1.36 GB ] Девушка-воскресенье / Sunday Girl [2019 WEB-DLRip] MVO [Creative Arts Media] bober100 Скачать
2 | 0


Последний раз редактировалось: bober100 (2020-07-18 19:59), всего редактировалось 1 раз

28-11-2019 20:33  

Отключить всю рекламу на сайте

18-07-2020 08:09 Девушка-воскресенье Скачать торрент  

это вот как раз современное кино? про девушку- шлюшку??? ЗБС ,
тема сисек должна быть раскрыта, но чую тут один обман...pb.wtf



19-07-2020 23:00 Девушка-воскресенье Скачать торрент  

Наташа...pb.wtf



    Дорогой пользователь! Огромная просьба, поблагодарите релизера, оцените раздачу и оставьте свои комментарий, если Вы скачали Девушка-воскресенье через торрент бесплатно! Внесите свою лепту в развитие PiratBit!
    Комментировать посты могут только пользователи прошедшие не сложную регистрацию
    Показать сообщения:    

    Девушка-воскресенье через торрент
    Скачать бесплатно Девушка-воскресенье
    Девушка-воскресенье скачать торрент
    Девушка-воскресенье смотреть онлайн
    Cкачать фильм Девушка-воскресенье бесплатно
    Девушка-воскресенье скачать торрент в хорошем качестве
    Девушка-воскресенье смотреть онлайн бесплатно в хорошем качестве


    Вы не можете начинать темы
    Вы не можете отвечать на сообщения
    Вы не можете редактировать свои сообщения
    Вы не можете удалять свои сообщения
    Вы не можете голосовать в опросах
    Вы не можете прикреплять файлы к сообщениям
    Вы можете скачивать файлы