Ссылка на приватное зеркало нашего сайта всего за 1$. Внимание количество ограничено!!!

2 сезон

iTunes

1 сезон

1

iTunes

iTunes

iTunes

1 сезон

RePack

30

ИГРА 18+

pack

ВАЖНО

!!Акция!!

Alien_RageХит недели

RePack

MK11
pack

Забери бонус

RePack

jed

!!Акция!!

Alien_Rage

RePack

fifa19

RePack

Assassins Creed: Odyssey

RePack

NEED FOR SPEED™ PAYBACK

4 сезон

9 сезон

Бесстыжие 9 сезон

Все сериалы

все сериалы на PB.wtf

RePack

FAR CRY 5
  

Снайперша / Серии: 1-4 из 4 (Александр Сальников) [2017, Мелодрама, WEB-DL 720p] pb.wtf

Снайперша через торрент pb.wtf

Размер: 4.94 GB | Добавлен: 3 мес. назад | Торрент скачан:25 раз
Скачать  

19-07-2020 03:21 Снайперша Скачать торрент  

Снайперша
Год выпуска: 2017
Страна: Украина, Латвия
Выпущено: ART FORMS PRODUCTION, SIA (Латвийская Республика), ЧАО "ММЦ-СТБ"
Жанр: Мелодрама
Продолжительность: 00:46:10
Перевод: Не требуется
Субтитры: отсутствуют

Режиссер: Александр Сальников



В ролях: Виктория Литвиненко, Ольга Лукьяненко, Оксана Сташенко, Рихард Леперс, Лилия Ребрик, Константин Октябрьский, Станислав Флоренцев, Борис Книженко, Юрий Лахин, Александр Соколов (VI), Антон Мухарский, Диана Гордая, Леонид Захарченко

Описание: Успешная и опытная "снайперша" Вера получает очередное задание (цель) от своего высокого покровителя – обольстить заграничного бизнесмена и склонить его к совершению сомнительной сделки. Обычно умная и предприимчивая Вера с легкостью справляется с подобными задачами, но… Накануне встречи с очередной "целью", неожиданно для себя, она узнает, что беременна...

Качество: WEB-DL 720p
Формат: MKV

Видео: MPEG-4 AVC, ~ 3500 Кбит/с, 1280x720, 25 кадр/с
Аудио: 48.0 kHz, AC3 Dolby Digital, 2/0 (L,R) ch, ~ 192 kbps
скриншот  скриншот  скриншот  скриншот  скриншот  

General
Unique ID : 85032839550982105402136339697950279392 (0x3FF8BAAC81D8B25A6B34132A91C446E0)
Complete name : C:01.Снайперша.(2017).WEB-DL (720p).by.Nicodem.Files-x.mkv
Format : Matroska
File size : 1.25 GiB
Duration : 47mn 30s
Overall bit rate : 3 767 Kbps
Writing application : Lavf56.36.100
Writing library : Lavf56.36.100

Video
ID : 1
Format : AVC
Format/Info : Advanced Video Codec
Format profile : Main@L3.1
Format settings, CABAC : Yes
Format settings, ReFrames : 2 frames
Codec ID : V_MPEG4/ISO/AVC
Duration : 47mn 30s
Bit rate : 3 500 Kbps
Width : 1 280 pixels
Height : 720 pixels
Display aspect ratio : 16:9
Frame rate mode : Variable
Frame rate : 25.000 fps
Color space : YUV
Chroma subsampling : 4:2:0
Bit depth : 8 bits
Scan type : Progressive
Bits/(Pixel*Frame) : 0.152
Stream size : 1.16 GiB (93%)
Language : English

Audio
ID : 2
Format : AC-3
Format/Info : Audio Coding 3
Mode extension : CM (complete main)
Codec ID : A_AC3
Duration : 47mn 30s
Bit rate mode : Constant
Bit rate : 192 Kbps
Channel(s) : 2 channels
Channel positions : Front: L R
Sampling rate : 48.0 KHz
Bit depth : 16 bits
Compression mode : Lossy
Stream size : 65.3 MiB (5%)
Language : English / un

pb.wtf



Скачать Снайперша через торрент https://i113.fastpic.ru/big/2020/0719/ea/256f9893b8f2f4298fbbf961bd2922ea.jpg Скачать фильм Снайперша через торрент бесплантно в хорошем качестве Описание: Успешная и опытная "снайперша" Вера получает очередное задание (цель) от своего высокого покровителя – обольстить заграничного ... 7.8 10 4
Торрент: Зарегистрирован [2020-07-19 03:21] · скачан: 25 раз
Статус: √ проверено
Размер: 4.94 GB
Как cкачать? Как скачать Снайперша через торрент | qTorrent

% Раздел Тема Автор DL S | L
Наши сериалы [ 2.35 GB ] Снайперша / Серии: 1-4 из 4 [2017 Мело WEB-DLRip-AVC] bober100 Скачать
1 | 0
Наши сериалы [ 6.95 GB ] Снайперша / Серии: 1-4 из 4 [2017 Мело WEB-DL 1080p] bober100 Скачать
1 | 0
Наши сериалы [ 2.37 GB ] Снайперша / Серии: 1-4 из 4 [2017 Мело WEB-DLRip] bober100 Скачать
1 | 0
Наши сериалы [ 2.34 GB ] Снайперша / Сезон: 1 / Серии 1-4 из 4 [2017 Украина Латвия Мело SATRip] GEKADOL Скачать
1 | 0

28-11-2019 20:33  

Отключить всю рекламу на сайте

    Дорогой пользователь! Огромная просьба, поблагодарите релизера, оцените раздачу и оставьте свои комментарий, если Вы скачали Снайперша через торрент бесплатно! Внесите свою лепту в развитие PiratBit!
    Комментировать посты могут только пользователи прошедшие не сложную регистрацию
    Показать сообщения:    

    Снайперша через торрент
    Скачать бесплатно Снайперша
    Снайперша скачать торрент
    Снайперша смотреть онлайн
    Cкачать фильм Снайперша бесплатно
    Снайперша скачать торрент в хорошем качестве
    Снайперша смотреть онлайн бесплатно в хорошем качестве


    Вы не можете начинать темы
    Вы не можете отвечать на сообщения
    Вы не можете редактировать свои сообщения
    Вы не можете удалять свои сообщения
    Вы не можете голосовать в опросах
    Вы не можете прикреплять файлы к сообщениям
    Вы можете скачивать файлы